<?xml version="1.0" standalone="no"?>
<!DOCTYPE svg PUBLIC "-//W3C//DTD SVG 1.1//EN" "http://www.w3.org/Graphics/SVG/1.1/DTD/svg11.dtd" >
<svg xmlns="http://www.w3.org/2000/svg" xmlns:xlink="http://www.w3.org/1999/xlink" version="1.1">
<metadata>
Created by FontForge 20170731 at Tue Dec 27 21:29:46 2016
 By Aleksey,,,
Copyright (c) 2016 by www.fontiran.com (Moslem Ebrahimi). All rights reserved.
</metadata>
<defs>
<font id="IRANYekanWebFaNum" horiz-adv-x="0" >
  <font-face 
    font-family="IRANYekanWeb(FaNum)"
    font-weight="400"
    font-stretch="normal"
    units-per-em="2200"
    panose-1="2 11 5 6 3 8 4 2 2 4"
    ascent="1760"
    descent="-440"
    x-height="1162"
    cap-height="1564"
    bbox="-483 -1078 3150 2693.24"
    underline-thickness="100"
    underline-position="-950"
    unicode-range="U+001D-FEFF"
  />
<missing-glyph horiz-adv-x="1229" 
d="M102 -362v1806h1024v-1806h-1024zM217 -248h795v1577h-795v-1577z" />
    <glyph glyph-name="uniFDF2" unicode="&#xfedf;&#xfee0;&#xfeea;" horiz-adv-x="2235" arabic-form="isolated" 
d="M1311 1307q-87 0 -136 48t-49 134v91l91 15v-106q0 -48 22 -70t72 -22q7 0 20.5 2.5t26.5 12t23 28t10 49.5v90l92 20v-110q0 -48 22 -70.5t73 -22.5q7 0 20 3.5t26 13t22 28t9 48.5q0 15 -3.5 36t-8.5 42t-9.5 39t-7.5 27l85 29q1 -5 7 -23.5t12 -44t11 -53.5t5 -52
q0 -47 -15 -81.5t-39.5 -57t-55 -33.5t-60.5 -11q-92 0 -140 53q-25 -27 -58 -39.5t-67 -12.5zM1100 0q-103 0 -174 26.5t-118 74.5t-72.5 116t-37.5 151l-62 442l-120 -25q-105 -27 -143 -94q-29 -49 -31.5 -118t10 -146t34 -156t42.5 -148l28 -92l-182 -51
q-18 62 -38.5 130t-38.5 138.5t-30.5 141.5t-13.5 140t11.5 133.5t45.5 121.5q81 140 262 182q20 5 55.5 13t70.5 15.5t61.5 12.5t28.5 5l111 -72l81 -525q12 -75 34 -120t51.5 -69t64 -31t70.5 -7h2q79 0 125.5 19.5t70.5 49t31 64.5t7 67l-2 705l190 44v-749
q0 -3 -0.5 -5.5t-0.5 -4.5h1q0 -54 20.5 -90.5t52.5 -58.5t71.5 -31.5t77.5 -9.5h10q61 0 104 10.5t69 34t38 61.5t12 94l-48 831l188 93l48 -924q0 -34 -3 -70.5t-13 -73.5t-29 -72.5t-51 -66.5q-29 -27 -56.5 -46.5t-63 -33t-82.5 -20t-113 -6.5h-10q-38 0 -81 6.5
t-83.5 19.5t-76.5 32.5t-61 44.5l-15 15q-29 -30 -59.5 -52t-68.5 -36.5t-86.5 -22t-112.5 -7.5h-2zM1389 1975l93 22v-278l-93 -23v279z" />
    <glyph glyph-name="uniFDFC" unicode="&#x631;&#xfef3;&#xfe8e;&#x644;" horiz-adv-x="3327" arabic-form="isolated" 
d="M733 -553q-134 0 -243.5 58.5t-177.5 164.5q-27 43 -52 113t-29.5 168.5t22 226.5t103.5 288l170 -81q-47 -96 -73.5 -184t-33 -166t6 -144.5t45.5 -119.5q42 -64 110.5 -99.5t151.5 -35.5h72q114 0 186.5 24t113 68.5t55.5 106.5t15 139v1453h186v-1453
q0 -525 -556 -527h-72zM2423 -555v189h138q103 0 178.5 24.5t125 75.5t73 130t23.5 188v624h189v-624q0 -143 -37.5 -255.5t-111.5 -190.5t-184.5 -119.5t-255.5 -41.5h-138zM2305 -394l-162 -162l-156 162l158 160zM1922 -396l-162 -162l-156 162l158 160zM2039 0
q-95 1 -163.5 14.5t-116 39t-76 64t-44.5 90t-21 115.5t-5 142v962h189v-962q0 -87 5.5 -141t29 -83.5t71 -40t131.5 -11.5v-189zM2527 814q2 -6 8 -32t13.5 -64.5t16.5 -85t16 -94t12 -91.5t5 -77q0 -96 -31.5 -165.5t-82 -115t-113.5 -67.5t-127 -22h-255v189h255
q15 0 42.5 4.5t55 22.5t48 54t20.5 100q0 22 -3.5 55.5t-9 72t-12.5 79t-14 76.5t-13 64t-10 42z" />
    <glyph glyph-name="uniFEF5" unicode="&#xfedf;&#xfe82;" horiz-adv-x="1258" arabic-form="isolated" 
d="M143 188h539q92 0 143.5 13.5t79.5 41.5q20 19 29.5 53.5t9.5 91.5v1039h188v-1039q0 -199 -113.5 -294t-336.5 -95h-539v189zM268 365l-60 1021l187 21l61 -1042h-188zM761 1560h-483q-63 0 -106 -5t-72.5 -20t-48 -43t-32.5 -74l-158 47q46 161 167 221q51 26 113 33.5
t137 7.5h483v-167z" />
    <glyph glyph-name="uniFEF6" unicode="&#xfee0;&#xfe82;" horiz-adv-x="1340" arabic-form="final" 
d="M268 366l-60 1021l187 21l61 -1042h-188zM1365 189v-189h-51q-91 0 -160.5 26t-111.5 78q-104 -104 -308 -104h-590v189h590q72 0 114 14.5t63.5 36t28 48t6.5 50.5v1090h188v-1083q0 -37 11 -63t28.5 -43.5t39 -27.5t41.5 -15t36 -6t24 -1h51zM750 1567h-483
q-63 0 -106 -5t-72.5 -20t-48 -43t-32.5 -74l-158 47q46 161 167 221q51 26 113 33.5t137 7.5h483v-167z" />
    <glyph glyph-name="uniFEF7" unicode="&#xfedf;&#xfe84;" horiz-adv-x="1258" arabic-form="isolated" 
d="M143 188h539q92 0 143.5 13.5t79.5 41.5q20 19 29.5 53.5t9.5 91.5v1039h188v-1039q0 -199 -113.5 -294t-336.5 -95h-539v189zM268 365l-60 1021l187 21l61 -1042h-188zM-21 1463l9 127l124 37q-54 43 -74 104q-13 39 -7.5 79t25 74.5t51 60t69.5 36.5q27 9 54 9.5
t52.5 -3t48.5 -11t43 -14.5l-25 -101q-17 4 -36 8t-38 6.5t-36 2t-28 -4.5q-17 -6 -31.5 -16.5t-24 -24t-12.5 -30.5t3 -37t22.5 -36.5t44.5 -25.5t67 -9t92 14l85 25l34 -108z" />
    <glyph glyph-name="uniFEF8" unicode="&#xfee0;&#xfe84;" horiz-adv-x="1352" arabic-form="final" 
d="M268 366l-60 1021l187 21l61 -1042h-188zM1365 189v-189h-51q-91 0 -160.5 26t-111.5 78q-104 -104 -308 -104h-590v189h590q72 0 114 14.5t63.5 36t28 48t6.5 50.5v1090h188v-1083q0 -37 11 -63t28.5 -43.5t39 -27.5t41.5 -15t36 -6t24 -1h51zM32 1487l9 127l124 37
q-54 43 -74 104q-13 39 -7.5 79t25 74.5t51 60t69.5 36.5q27 9 54 9.5t52.5 -3t48.5 -11t43 -14.5l-25 -101q-17 4 -36 8t-38 6.5t-36 2t-28 -4.5q-17 -6 -31.5 -16.5t-24 -24t-12.5 -30.5t3 -37t22.5 -36.5t44.5 -25.5t67 -9t92 14l85 25l34 -108z" />
    <glyph glyph-name="uniFEF9" unicode="&#xfedf;&#xfe88;" horiz-adv-x="1275" arabic-form="isolated" 
d="M143 188h539q92 0 143.5 13.5t79.5 41.5q20 19 29.5 53.5t9.5 91.5v1039h188v-1039q0 -199 -113.5 -294t-336.5 -95h-539v189zM268 365l-60 1021l187 21l61 -1042h-188zM267 -671l9 127l124 37q-54 43 -74 104q-13 39 -7.5 79t25 74.5t51 60t69.5 36.5q27 9 54 9.5
t52.5 -3t48.5 -11t43 -14.5l-25 -101q-17 4 -36 8t-38 6.5t-36 2t-28 -4.5q-17 -6 -31.5 -16.5t-24 -24t-12.5 -30.5t3 -37t22.5 -36.5t44.5 -25.5t67 -9t92 14l85 25l34 -108z" />
    <glyph glyph-name="uniFEFA" unicode="&#xfee0;&#xfe88;" horiz-adv-x="1344" arabic-form="final" 
d="M268 366l-60 1021l187 21l61 -1042h-188zM1365 189v-189h-51q-91 0 -160.5 26t-111.5 78q-104 -104 -308 -104h-590v189h590q72 0 114 14.5t63.5 36t28 48t6.5 50.5v1090h188v-1083q0 -37 11 -63t28.5 -43.5t39 -27.5t41.5 -15t36 -6t24 -1h51zM262 -668l9 127l124 37
q-54 43 -74 104q-13 39 -7.5 79t25 74.5t51 60t69.5 36.5q27 9 54 9.5t52.5 -3t48.5 -11t43 -14.5l-25 -101q-17 4 -36 8t-38 6.5t-36 2t-28 -4.5q-17 -6 -31.5 -16.5t-24 -24t-12.5 -30.5t3 -37t22.5 -36.5t44.5 -25.5t67 -9t92 14l85 25l34 -108z" />
    <glyph glyph-name="uniFEFB" unicode="&#xfedf;&#xfe8e;" horiz-adv-x="1302" arabic-form="isolated" 
d="M143 189h539q92 0 143.5 13.5t79.5 41.5q20 19 29.5 53.5t9.5 91.5v1039h188v-1039q0 -199 -113.5 -294t-336.5 -95h-539v189zM268 366l-60 1021l187 21l61 -1042h-188z" />
    <glyph glyph-name="uniFEFC" unicode="&#xfee0;&#xfe8e;" horiz-adv-x="1340" arabic-form="final" 
d="M268 366l-60 1021l187 21l61 -1042h-188zM1365 189v-189h-51q-91 0 -160.5 26t-111.5 78q-104 -104 -308 -104h-590v189h590q72 0 114 14.5t63.5 36t28 48t6.5 50.5v1090h188v-1083q0 -37 11 -63t28.5 -43.5t39 -27.5t41.5 -15t36 -6t24 -1h51z" />
    <glyph glyph-name="uni06440671.isol" unicode="&#xfedf;&#xfb51;" horiz-adv-x="1258" 
d="M143 188h539q92 0 143.5 13.5t79.5 41.5q20 19 29.5 53.5t9.5 91.5v1039h188v-1039q0 -199 -113.5 -294t-336.5 -95h-539v189zM268 365l-60 1021l187 21l61 -1042h-188zM-9 1530l19 85h129l47 73l83 122q38 46 84 77t103 31q33 0 64.5 -12t56.5 -37.5t40.5 -64.5
t15.5 -92q0 -51 -17 -85.5t-43 -56t-58.5 -31t-63.5 -9.5h-460zM451 1615q42 0 69 23t27 74q0 58 -23.5 89.5t-67.5 31.5q-32 0 -61 -20t-56 -51.5t-51.5 -69.5t-45.5 -74q-1 -1 -1 -3h210z" />
    <glyph glyph-name="uni06440671.fina" unicode="&#xfee0;&#xfb51;" horiz-adv-x="1346" 
d="M268 366l-60 1021l187 21l61 -1042h-188zM1365 189v-189h-51q-91 0 -160.5 26t-111.5 78q-104 -104 -308 -104h-590v189h590q72 0 114 14.5t63.5 36t28 48t6.5 50.5v1090h188v-1083q0 -37 11 -63t28.5 -43.5t39 -27.5t41.5 -15t36 -6t24 -1h51zM-32 1544l19 85h129l47 73
l83 122q38 46 84 77t103 31q33 0 64.5 -12t56.5 -37.5t40.5 -64.5t15.5 -92q0 -51 -17 -85.5t-43 -56t-58.5 -31t-63.5 -9.5h-460zM428 1629q42 0 69 23t27 74q0 58 -23.5 89.5t-67.5 31.5q-32 0 -61 -20t-56 -51.5t-51.5 -69.5t-45.5 -74q-1 -1 -1 -3h210z" />
    <glyph glyph-name="uni0621" unicode="&#x621;" horiz-adv-x="1004" arabic-form="isolated" 
d="M99 -44l-6 183l232 69q-50 35 -88 81t-55 101v-1q-22 67 -11 136t44 130q23 39 55.5 70.5t71.5 53.5t82 33.5t88 11.5q58 0 116 -13.5t115 -27.5q-10 -44 -19.5 -80.5t-19.5 -80.5q-63 13 -109.5 18.5t-84.5 5.5q-45 0 -82.5 -17.5t-62 -46.5t-34 -65.5t2.5 -75.5
q12 -38 36 -64.5t55 -43t66 -24t70 -7.5q36 0 78.5 8t86.5 20t86 26t76 26l7 -193z" />
    <glyph glyph-name="uni0622" unicode="&#x622;" horiz-adv-x="761" arabic-form="isolated" 
d="M460 0h-189v1277h189v-1277zM783 1438h-483q-63 0 -106 -5t-72.5 -20t-48 -43t-32.5 -74l-158 47q46 161 167 221q51 26 113 33.5t137 7.5h483v-167z" />
    <glyph glyph-name="uni0623" unicode="&#x623;" horiz-adv-x="592" arabic-form="isolated" 
d="M393 0h-189v1277h189v-1277zM29 1369l9 127l124 37q-54 43 -74 104q-13 39 -7.5 79t25 74.5t51 60t69.5 36.5q27 9 54 9.5t52.5 -3t48.5 -11t43 -14.5l-25 -101q-17 4 -36 8t-38 6.5t-36 2t-28 -4.5q-17 -6 -31.5 -16.5t-24 -24t-12.5 -30.5t3 -37t22.5 -36.5t44.5 -25.5
t67 -9t92 14l85 25l34 -108z" />
    <glyph glyph-name="uni0624" unicode="&#x624;" horiz-adv-x="973" arabic-form="isolated" 
d="M193 -363q151 0 254 23t163 71q52 42 76.5 107t24.5 162h-184q-70 0 -142 21t-130.5 69t-95.5 125.5t-37 189.5q0 66 11.5 119.5t29 95.5t38.5 73t41 53q55 55 126 85t152 30q71 0 133 -22t111 -66q135 -126 135 -395v-189v-189q0 -142 -41.5 -244.5t-128.5 -171.5
q-88 -69 -218.5 -102.5t-317.5 -33.5v189zM520 672q-99 0 -154 -70t-55 -197q0 -129 78 -179q19 -12 39 -19.5t39 -11t34.5 -5t25.5 -1.5h184v189q0 73 -11 123.5t-28 83.5t-38.5 50.5t-42.5 25.5t-40 9.5t-31 1.5zM183 1016l9 127l124 37q-54 43 -74 104q-13 39 -7.5 79
t25 74.5t51 60t69.5 36.5q27 9 54 9.5t52.5 -3t48.5 -11t43 -14.5l-25 -101q-17 4 -36 8t-38 6.5t-36 2t-28 -4.5q-17 -6 -31.5 -16.5t-24 -24t-12.5 -30.5t3 -37t22.5 -36.5t44.5 -25.5t67 -9t92 14l85 25l34 -108z" />
    <glyph glyph-name="uni0625" unicode="&#x625;" horiz-adv-x="592" arabic-form="isolated" 
d="M390 1h-189v1426h189v-1426zM58 -684l9 127l124 37q-54 43 -74 104q-13 39 -7.5 79t25 74.5t51 60t69.5 36.5q27 9 54 9.5t52.5 -3t48.5 -11t43 -14.5l-25 -101q-17 4 -36 8t-38 6.5t-36 2t-28 -4.5q-17 -6 -31.5 -16.5t-24 -24t-12.5 -30.5t3 -37t22.5 -36.5t44.5 -25.5
t67 -9t92 14l85 25l34 -108z" />
    <glyph glyph-name="uni0626" unicode="&#x626;" horiz-adv-x="1680" arabic-form="isolated" 
d="M933 -361q100 0 173.5 17.5t121.5 55.5t71 99t23 148q-96 25 -188 50q-39 10 -82 21.5t-85.5 23t-83 21.5t-74.5 19q-47 114 -44 223.5t44 204.5t116 170.5t173 120.5t214 54.5t240 -26.5l-47 -181q-68 21 -138 20.5t-134.5 -20t-119.5 -56.5t-93.5 -88.5t-56 -116
t-7.5 -138.5l383 -95q80 -22 120 -72t40 -122q0 -131 -31 -229.5t-99 -163.5t-175.5 -98t-260.5 -33h-221q-76 0 -147 19t-134 53t-116 82t-93 106q-47 76 -71 167t-24 192q0 125 39.5 269.5t115.5 305.5q45 -21 84 -40.5t82 -40.5q-132 -282 -132 -489q0 -74 18 -141
t50 -121q51 -80 138 -125.5t190 -45.5h221v0zM110 757l9 127l124 37q-54 43 -74 104q-13 39 -7.5 79t25 74.5t51 60t69.5 36.5q27 9 54 9.5t52.5 -3t48.5 -11t43 -14.5l-25 -101q-17 4 -36 8t-38 6.5t-36 2t-28 -4.5q-17 -6 -31.5 -16.5t-24 -24t-12.5 -30.5t3 -37
t22.5 -36.5t44.5 -25.5t67 -9t92 14l85 25l34 -108z" />
    <glyph glyph-name="uni0627" unicode="&#x627;" horiz-adv-x="592" arabic-form="isolated" 
d="M390 1h-189v1426h189v-1426z" />
    <glyph glyph-name="uni0628" unicode="&#x628;" horiz-adv-x="2101" arabic-form="isolated" 
d="M1965 767q22 -87 40 -183t21 -204q2 -90 -23.5 -160.5t-72 -119.5t-111.5 -75t-143 -26l-603 -2q-135 0 -265.5 0.5t-244.5 15t-205.5 49t-147.5 100.5q-82 96 -82 244q0 51 7.5 102.5t16.5 94t16.5 70t8.5 29.5l180 -55l-6.5 -23t-14 -58t-14 -77.5t-6.5 -82.5
q0 -81 45.5 -126.5t139 -66.5t236 -25t336.5 -3l603 3q40 0 70.5 14t50.5 39t30 59.5t8 74.5q-2 94 -18.5 180t-36.5 167l185 45v0zM888 -349l170 172l174 -174l-172 -172z" />
    <glyph glyph-name="uni0629" unicode="&#x629;" horiz-adv-x="1043" arabic-form="isolated" 
d="M525 0q-90 0 -165.5 27.5t-131 76t-86.5 115t-31 144.5q0 100 26.5 176.5t67.5 138t90 112.5t94 100l-62 69l140 127q52 -58 107.5 -116.5t108.5 -118t99.5 -119t81.5 -119t55.5 -119t19.5 -117.5q-1 -81 -32.5 -151.5t-91.5 -124.5q-56 -48 -130.5 -74.5t-159.5 -26.5z
M512 755q-38 -43 -76 -85.5t-68 -89.5t-49 -100t-19 -117q0 -45 19.5 -77.5t51 -54t72 -32t82.5 -10.5q51 0 92.5 13.5t71 38.5t45.5 59.5t16 76.5q0 50 -21 98.5t-54.5 95.5t-76.5 93t-86 91zM694 1214l-158 160l156 162l162 -162zM311 1216l-158 160l156 162l162 -162z
" />
    <glyph glyph-name="uni062A" unicode="&#x62a;" horiz-adv-x="2101" arabic-form="isolated" 
d="M1965 767q22 -87 40 -183t21 -204q2 -90 -23.5 -160.5t-72 -119.5t-111.5 -75t-143 -26l-603 -2q-135 0 -265.5 0.5t-244.5 15t-205.5 49t-147.5 100.5q-82 96 -82 244q0 51 7.5 102.5t16.5 94t16.5 70t8.5 29.5l180 -55l-6.5 -23t-14 -58t-14 -77.5t-6.5 -82.5
q0 -81 45.5 -126.5t139 -66.5t236 -25t336.5 -3l603 3q40 0 70.5 14t50.5 39t30 59.5t8 74.5q-2 94 -18.5 180t-36.5 167l185 45v0zM1263 766l-158 160l156 162l162 -162zM880 768l-158 160l156 162l162 -162z" />
    <glyph glyph-name="uni062B" unicode="&#x62b;" horiz-adv-x="2104" arabic-form="isolated" 
d="M1965 767q22 -87 40 -183t21 -204q2 -90 -23.5 -160.5t-72 -119.5t-111.5 -75t-143 -26l-603 -2q-135 0 -265.5 0.5t-244.5 15t-205.5 49t-147.5 100.5q-82 96 -82 244q0 51 7.5 102.5t16.5 94t16.5 70t8.5 29.5l180 -55l-6.5 -23t-14 -58t-14 -77.5t-6.5 -82.5
q0 -81 45.5 -126.5t139 -66.5t236 -25t336.5 -3l603 3q40 0 70.5 14t50.5 39t30 59.5t8 74.5q-2 94 -18.5 180t-36.5 167l185 45v0zM1225 1170l-142 -139l-140 139l144 143zM1274 718l-158 160l156 162l162 -162zM891 720l-158 160l156 162l162 -162z" />
    <glyph glyph-name="uni062C" unicode="&#x62c;" horiz-adv-x="1491" arabic-form="isolated" 
d="M1342 603q-2 -1 -31.5 -12.5t-99 -38t-186 -70t-293.5 -109.5q-108 -41 -185 -74.5t-128 -64t-79.5 -60t-41.5 -60t-14 -65.5t5 -76q13 -105 54 -171t104.5 -102.5t148.5 -50t186 -13.5h459v-189h-459q-46 0 -97.5 2.5t-105 11t-107.5 24.5t-105 43q-226 122 -265 420
q-16 121 11.5 209.5t101.5 159.5q70 67 182.5 120.5t269.5 111.5l419 150q-97 39 -194 74t-178.5 61.5t-139.5 43t-77 19.5q-17 0 -35.5 -3t-36.5 -18t-35 -46.5t-32 -88.5l-183 48q77 296 324 296q7 0 16.5 -0.5t29 -5t50.5 -14t81 -26.5t121 -43.5t170 -65.5l368 -150z
M697 42l170 172l174 -174l-172 -172z" />
    <glyph glyph-name="uni062D" unicode="&#x62d;" horiz-adv-x="1449" arabic-form="isolated" 
d="M1342 603q-2 -1 -31.5 -12.5t-99 -38t-186 -70t-293.5 -109.5q-108 -41 -185 -74.5t-128 -64t-79.5 -60t-41.5 -60t-14 -65.5t5 -76q13 -105 54 -171t104.5 -102.5t148.5 -50t186 -13.5h459v-189h-459q-46 0 -97.5 2.5t-105 11t-107.5 24.5t-105 43q-226 122 -265 420
q-16 121 11.5 209.5t101.5 159.5q70 67 182.5 120.5t269.5 111.5l419 150q-97 39 -194 74t-178.5 61.5t-139.5 43t-77 19.5q-17 0 -35.5 -3t-36.5 -18t-35 -46.5t-32 -88.5l-183 48q77 296 324 296q7 0 16.5 -0.5t29 -5t50.5 -14t81 -26.5t121 -43.5t170 -65.5l368 -150z
" />
    <glyph glyph-name="uni062E" unicode="&#x62e;" horiz-adv-x="1465" arabic-form="isolated" 
d="M1342 603q-2 -1 -31.5 -12.5t-99 -38t-186 -70t-293.5 -109.5q-108 -41 -185 -74.5t-128 -64t-79.5 -60t-41.5 -60t-14 -65.5t5 -76q13 -105 54 -171t104.5 -102.5t148.5 -50t186 -13.5h459v-189h-459q-46 0 -97.5 2.5t-105 11t-107.5 24.5t-105 43q-226 122 -265 420
q-16 121 11.5 209.5t101.5 159.5q70 67 182.5 120.5t269.5 111.5l419 150q-97 39 -194 74t-178.5 61.5t-139.5 43t-77 19.5q-17 0 -35.5 -3t-36.5 -18t-35 -46.5t-32 -88.5l-183 48q77 296 324 296q7 0 16.5 -0.5t29 -5t50.5 -14t81 -26.5t121 -43.5t170 -65.5l368 -150z
M332 1466l170 172l174 -174l-172 -172z" />
    <glyph glyph-name="uni062F" unicode="&#x62f;" horiz-adv-x="1080" arabic-form="isolated" 
d="M543 -15q-51 0 -103 4.5t-101.5 14t-95 25t-82.5 37.5l-83 47l94 165l83 -47q35 -20 86 -32.5t108 -18t115 -4.5t107 8q58 9 95.5 25.5t47.5 37.5q10 22 -3 61t-45 87l-362 547l160 104q13 -20 27 -41.5t33 -50t44 -67t61 -92.5l84 -126l112 -168q25 -38 45 -79.5
t30 -83.5t8.5 -84.5t-20.5 -83.5q-63 -141 -290 -174q-35 -5 -74 -8t-81 -3z" />
    <glyph glyph-name="uni0630" unicode="&#x630;" horiz-adv-x="1088" arabic-form="isolated" 
d="M543 -15q-51 0 -103 4.5t-101.5 14t-95 25t-82.5 37.5l-83 47l94 165l83 -47q35 -20 86 -32.5t108 -18t115 -4.5t107 8q58 9 95.5 25.5t47.5 37.5q10 22 -3 61t-45 87l-362 547l160 104q13 -20 27 -41.5t33 -50t44 -67t61 -92.5l84 -126l112 -168q25 -38 45 -79.5
t30 -83.5t8.5 -84.5t-20.5 -83.5q-63 -141 -290 -174q-35 -5 -74 -8t-81 -3zM369 1414l170 172l174 -174l-172 -172z" />
    <glyph glyph-name="uni0631" unicode="&#x631;" horiz-adv-x="735" arabic-form="isolated" 
d="M-90 -555v189h138q103 0 178.5 24.5t125 75.5t73 130t23.5 188v624h189v-624q0 -143 -37.5 -255.5t-111.5 -190.5t-184.5 -119.5t-255.5 -41.5h-138z" />
    <glyph glyph-name="uni0632" unicode="&#x632;" horiz-adv-x="795" arabic-form="isolated" 
d="M-90 -555v189h138q103 0 178.5 24.5t125 75.5t73 130t23.5 188v624h189v-624q0 -143 -37.5 -255.5t-111.5 -190.5t-184.5 -119.5t-255.5 -41.5h-138zM367 1109l170 172l174 -174l-172 -172z" />
    <glyph glyph-name="uni0633" unicode="&#x633;" horiz-adv-x="2736" arabic-form="isolated" 
d="M2285 0q-99 0 -173.5 29t-124.5 84q-27 -32 -60.5 -53.5t-69 -35t-72 -19t-70.5 -5.5q-125 0 -216 56v-84q0 -262 -140 -393t-419 -131h-235q-155 0 -281 67t-204 191q-54 85 -77.5 189t-16.5 223t44 250t103 270l170 -83q-56 -116 -88.5 -223t-40.5 -202.5t8 -177
t57 -145.5q52 -81 136 -125.5t190 -44.5h235q115 0 187.5 24t113 68t55 105.5t14.5 137.5v704h189v-195q0 -96 18.5 -153.5t49 -88.5t69 -41t79.5 -10q25 0 57 9t60 30.5t47.5 57.5t19.5 90v301h188v-311q2 -91 48.5 -134t148.5 -43q17 1 44.5 7.5t53 26t44 56t18.5 97.5
q0 22 -3.5 55t-8.5 70.5t-12 77t-13.5 74.5t-12.5 62.5t-10 41.5l180 55q2 -5 7.5 -30.5t13.5 -63t16.5 -83.5t15.5 -92.5t11.5 -90t4.5 -76.5q0 -95 -30.5 -164.5t-80 -116t-112 -70t-125.5 -24.5z" />
    <glyph glyph-name="uni0634" unicode="&#x634;" horiz-adv-x="2742" arabic-form="isolated" 
d="M2285 0q-99 0 -173.5 29t-124.5 84q-27 -32 -60.5 -53.5t-69 -35t-72 -19t-70.5 -5.5q-125 0 -216 56v-84q0 -262 -140 -393t-419 -131h-235q-155 0 -281 67t-204 191q-54 85 -77.5 189t-16.5 223t44 250t103 270l170 -83q-56 -116 -88.5 -223t-40.5 -202.5t8 -177
t57 -145.5q52 -81 136 -125.5t190 -44.5h235q115 0 187.5 24t113 68t55 105.5t14.5 137.5v704h189v-195q0 -96 18.5 -153.5t49 -88.5t69 -41t79.5 -10q25 0 57 9t60 30.5t47.5 57.5t19.5 90v301h188v-311q2 -91 48.5 -134t148.5 -43q17 1 44.5 7.5t53 26t44 56t18.5 97.5
q0 22 -3.5 55t-8.5 70.5t-12 77t-13.5 74.5t-12.5 62.5t-10 41.5l180 55q2 -5 7.5 -30.5t13.5 -63t16.5 -83.5t15.5 -92.5t11.5 -90t4.5 -76.5q0 -95 -30.5 -164.5t-80 -116t-112 -70t-125.5 -24.5zM2099 1392l-142 -139l-140 139l144 143zM2148 940l-158 160l156 162
l162 -162zM1765 942l-158 160l156 162l162 -162z" />
    <glyph glyph-name="uni0635" unicode="&#x635;" horiz-adv-x="2793" arabic-form="isolated" 
d="M720 -550q-156 0 -282.5 67.5t-204.5 192.5q-54 85 -77.5 188.5t-16.5 221.5t43.5 247.5t102.5 267.5l171 -81q-112 -232 -128 -423.5t66 -321.5q50 -81 135 -125.5t191 -44.5h235q115 0 186.5 24.5t112 68.5t55 106.5t14.5 138.5v357v342h188v-334q0 -54 23 -85t53 -46
q12 19 23.5 39t25.5 40q38 63 80.5 130t89 130t98 119.5t109.5 98.5t122.5 66.5t137.5 24.5t143.5 -27t126 -83.5t89.5 -142.5t34 -204q0 -111 -36.5 -187.5t-94.5 -124.5t-129.5 -69t-141.5 -21h-573q-48 0 -94 10t-86 29v-62q0 -527 -556 -527h-235zM2264 189q9 0 24 1
t33.5 4.5t38.5 10.5t39 20q78 52 78 177q0 127 -53.5 197.5t-150.5 70.5q-46 0 -90.5 -21t-86.5 -56.5t-82 -83t-78 -101t-73 -110t-68 -109.5h469z" />
    <glyph glyph-name="uni0636" unicode="&#x636;" horiz-adv-x="2760" arabic-form="isolated" 
d="M720 -550q-156 0 -282.5 67.5t-204.5 192.5q-54 85 -77.5 188.5t-16.5 221.5t43.5 247.5t102.5 267.5l171 -81q-112 -232 -128 -423.5t66 -321.5q50 -81 135 -125.5t191 -44.5h235q115 0 186.5 24.5t112 68.5t55 106.5t14.5 138.5v357v342h188v-334q0 -54 23 -85t53 -46
q12 19 23.5 39t25.5 40q38 63 80.5 130t89 130t98 119.5t109.5 98.5t122.5 66.5t137.5 24.5t143.5 -27t126 -83.5t89.5 -142.5t34 -204q0 -111 -36.5 -187.5t-94.5 -124.5t-129.5 -69t-141.5 -21h-573q-48 0 -94 10t-86 29v-62q0 -527 -556 -527h-235zM2264 189q9 0 24 1
t33.5 4.5t38.5 10.5t39 20q78 52 78 177q0 127 -53.5 197.5t-150.5 70.5q-46 0 -90.5 -21t-86.5 -56.5t-82 -83t-78 -101t-73 -110t-68 -109.5h469zM2087 1229l170 172l174 -174l-172 -172z" />
    <glyph glyph-name="uni0637" unicode="&#x637;" horiz-adv-x="1525" arabic-form="isolated" 
d="M87 0v189h224q25 38 49 80t50 81v1077h188v-807q43 51 89.5 95.5t98 76.5t108 50.5t118.5 18.5q73 0 144 -27t126.5 -83t89.5 -142t34 -204q0 -75 -17 -134t-46.5 -104t-69 -76.5t-84.5 -52t-93.5 -29.5t-94.5 -9h-914zM1001 189q9 0 24.5 1t34.5 5t39.5 11t39.5 19
q40 26 59 70t19 110q0 127 -54 197.5t-151 70.5q-46 0 -90 -20.5t-86.5 -56t-82.5 -83t-77.5 -101t-72.5 -110t-67 -109.5q-2 -2 -2 -4h467z" />
    <glyph glyph-name="uni0638" unicode="&#x638;" horiz-adv-x="1532" arabic-form="isolated" 
d="M87 0v189h224q25 38 49 80t50 81v1077h188v-807q43 51 89.5 95.5t98 76.5t108 50.5t118.5 18.5q73 0 144 -27t126.5 -83t89.5 -142t34 -204q0 -75 -17 -134t-46.5 -104t-69 -76.5t-84.5 -52t-93.5 -29.5t-94.5 -9h-914zM1001 189q9 0 24.5 1t34.5 5t39.5 11t39.5 19
q40 26 59 70t19 110q0 127 -54 197.5t-151 70.5q-46 0 -90 -20.5t-86.5 -56t-82.5 -83t-77.5 -101t-72.5 -110t-67 -109.5q-2 -2 -2 -4h467zM869 1287l170 172l174 -174l-172 -172z" />
    <glyph glyph-name="uni0639" unicode="&#x639;" horiz-adv-x="1384" arabic-form="isolated" 
d="M1193 -552h-465q-120 0 -235.5 33t-206.5 101.5t-146.5 173.5t-55.5 249q0 121 48 227t138 182q57 48 125 80.5t140 46.5q-39 39 -63 80.5t-37 79.5t-17.5 71.5t-4.5 57.5q0 82 33 154t88.5 126t129 85t154.5 31q55 0 104 -14t94.5 -36t89 -49t89.5 -53l-94 -163
q-35 20 -72 42.5t-73 41t-71 30.5t-67 12q-39 0 -78 -14.5t-69.5 -41.5t-50 -65t-19.5 -86q0 -15 3 -35t12.5 -43.5t26.5 -48t46 -47.5q66 -52 171 -79t245 -27h127v-189h-605q-36 0 -76 -9.5t-79.5 -29t-75.5 -48.5t-63 -68.5t-43.5 -89.5t-16.5 -111q0 -87 28.5 -148.5
t72.5 -102.5t98 -64.5t104.5 -35t91.5 -14.5t60 -3h465v-189z" />
    <glyph glyph-name="uni063A" unicode="&#x63a;" horiz-adv-x="1368" arabic-form="isolated" 
d="M1193 -552h-465q-120 0 -235.5 33t-206.5 101.5t-146.5 173.5t-55.5 249q0 121 48 227t138 182q57 48 125 80.5t140 46.5q-39 39 -63 80.5t-37 79.5t-17.5 71.5t-4.5 57.5q0 82 33 154t88.5 126t129 85t154.5 31q55 0 104 -14t94.5 -36t89 -49t89.5 -53l-94 -163
q-35 20 -72 42.5t-73 41t-71 30.5t-67 12q-39 0 -78 -14.5t-69.5 -41.5t-50 -65t-19.5 -86q0 -15 3 -35t12.5 -43.5t26.5 -48t46 -47.5q66 -52 171 -79t245 -27h127v-189h-605q-36 0 -76 -9.5t-79.5 -29t-75.5 -48.5t-63 -68.5t-43.5 -89.5t-16.5 -111q0 -87 28.5 -148.5
t72.5 -102.5t98 -64.5t104.5 -35t91.5 -14.5t60 -3h465v-189zM661 1590l170 172l174 -174l-172 -172z" />
    <glyph glyph-name="uni0641" unicode="&#x641;" horiz-adv-x="2104" arabic-form="isolated" 
d="M1057 -3q-102 0 -193 0.5t-171.5 4.5t-150.5 12.5t-129 24.5q-143 39 -215 123q-82 92 -82 244q0 51 7.5 102.5t16.5 94t16.5 70t8.5 29.5l180 -55l-6.5 -23t-14 -58t-14 -77.5t-6.5 -82.5t8.5 -69.5t27 -51t48.5 -37t74 -27.5q102 -27 251 -31.5t344 -4.5h120
q56 0 130 0.5t159 0.5q75 0 129.5 7.5t93.5 19.5t63.5 28.5t39 34.5t20.5 36.5t8 35.5q-32 0 -71 0.5t-80 0.5q-75 0 -149.5 14t-134.5 53t-97.5 107t-37.5 176q0 81 27.5 151t76.5 122.5t117 82.5t149 30q111 0 186 -48.5t120.5 -128t64.5 -181t19 -207.5v-137
q0 -114 -45 -188.5t-120.5 -118.5t-174 -61.5t-204.5 -17.5h-409zM1620 897q-34 0 -66.5 -11.5t-58 -36t-41.5 -62t-16 -88.5q0 -38 9 -68t34.5 -51t70.5 -32t117 -11h152q-5 64 -12.5 128t-27 115.5t-57.5 84t-104 32.5zM1432 1470l170 172l174 -174l-172 -172z" />
    <glyph glyph-name="uni0642" unicode="&#x642;" horiz-adv-x="1598" arabic-form="isolated" 
d="M794 -554h-100q-77 0 -148 17.5t-133.5 50.5t-114 81.5t-89.5 110.5q-54 85 -78 188.5t-17.5 221.5t43.5 247.5t105 267.5l170 -81q-56 -116 -88.5 -222.5t-40.5 -201.5t8 -176t57 -145q50 -81 135 -125.5t191 -44.5h90v2q151 0 254 23t163 71q52 42 76.5 107t24.5 162
h-184q-70 0 -142 21t-130.5 69t-95.5 125.5t-37 189.5q0 66 11.5 119.5t29 95.5t38.5 73t41 53q55 55 126 85t152 30q71 0 133 -22t111 -66q135 -126 135 -395v-378q0 -142 -41.5 -244.5t-128.5 -171.5t-214.5 -102t-311.5 -34v-2zM1111 672q-99 0 -154 -70t-55 -197
q0 -129 78 -179q19 -12 39 -19.5t39 -11t34.5 -5t25.5 -1.5h184v189q0 73 -11 123.5t-28 83.5t-38.5 50.5t-42.5 25.5t-40 9.5t-31 1.5zM1278 1070l-158 160l156 162l162 -162zM895 1072l-158 160l156 162l162 -162z" />
    <glyph glyph-name="uni0643" unicode="&#x643;" horiz-adv-x="2057" arabic-form="isolated" 
d="M920 487l-22 111q67 13 117 27.5t84.5 28t53 24.5t22.5 17q-6 2 -21.5 2.5t-32.5 0t-33.5 -1.5t-25.5 -2q-28 -2 -57.5 -2.5t-57 5.5t-50 20.5t-35.5 43.5q-59 135 212 296l57 -98q-53 -32 -89 -58.5t-57.5 -46.5t-30.5 -33.5t-9 -18.5q6 -2 20 -2t30.5 1.5t33 3.5
t26.5 2q26 2 52.5 2.5t51.5 -3.5q24 -4 41 -12t28.5 -18.5t18 -22.5t10.5 -23q14 -49 -11 -92q-58 -98 -326 -151zM1073 186q113 0 215 5.5t185 16.5t143 28.5t89 41.5q18 20 29 55.5t11 89.5v1004h189v-1004q0 -34 -3.5 -70.5t-14 -73.5t-30 -72.5t-50.5 -67.5
q-43 -45 -117 -72.5t-172.5 -42.5t-218.5 -20.5t-255 -5.5q-102 0 -194 0.5t-173 4.5t-151 12.5t-130 24.5q-143 39 -215 123q-82 92 -82 244q0 51 7.5 102.5t16.5 94t16.5 70t8.5 29.5l180 -55l-6.5 -23t-14 -58t-14 -77.5t-6.5 -82.5t8.5 -69.5t27 -51t48.5 -37t74 -27.5
q102 -27 253 -31.5t346 -4.5z" />
    <glyph glyph-name="uni0644" unicode="&#x644;" horiz-adv-x="1335" arabic-form="isolated" 
d="M583 -553q-134 0 -243.5 58.5t-177.5 164.5q-27 43 -52 113t-29.5 168.5t22 226.5t103.5 288l170 -81q-47 -96 -73.5 -184t-33 -166t6 -144.5t45.5 -119.5q42 -64 110.5 -99.5t151.5 -35.5h72q114 0 186.5 24t113 68.5t55.5 106.5t15 139v1453h186v-1453
q0 -525 -556 -527h-72z" />
    <glyph glyph-name="uni0645" unicode="&#x645;" horiz-adv-x="1352" arabic-form="isolated" 
d="M308 -660h-188v1036l182 106q29 -16 60 -33q26 -14 56.5 -31t59.5 -31q15 90 34.5 162.5t48.5 130.5q97 195 306 195q91 0 166.5 -37.5t127.5 -109.5q44 -60 66.5 -138t22.5 -166q0 -97 -16.5 -167t-43 -118t-60 -76.5t-67.5 -44t-66 -20.5t-55 -5q-17 0 -44 5t-73 21
t-116 46t-173 81q-69 34 -129.5 65.5t-98.5 52.5v-924zM655 298q85 -42 140 -65t87 -34.5t45 -14t15 -2.5q11 0 31.5 4t40 26.5t34 71.5t14.5 140q0 11 -1.5 35t-8 53t-19 60t-34 56.5t-54 42t-78.5 16.5q-39 0 -70 -14t-56.5 -56t-46 -118.5t-39.5 -200.5z" />
    <glyph glyph-name="uni0646" unicode="&#x646;" horiz-adv-x="1576" arabic-form="isolated" 
d="M682 -554q-155 0 -281 67.5t-204 192.5q-54 85 -77.5 188.5t-16.5 221.5t44 247.5t103 267.5l170 -81q-56 -116 -88.5 -222.5t-40.5 -201.5t8 -176t57 -145q52 -81 136 -125.5t190 -44.5h235q115 0 187.5 24.5t113 68.5t55 106.5t14.5 138.5v703h189v-703
q0 -264 -140 -395.5t-419 -131.5h-235zM690 755l170 172l174 -174l-172 -172z" />
    <glyph glyph-name="uni0647" unicode="&#x647;" horiz-adv-x="1042" arabic-form="isolated" 
d="M525 0q-90 0 -165.5 27.5t-131 76t-86.5 115t-31 144.5q0 100 26.5 176.5t67.5 138t90 112.5t94 100l-62 69l140 127q52 -58 107.5 -116.5t108.5 -118t99.5 -119t81.5 -119t55.5 -119t19.5 -117.5q-1 -81 -32.5 -151.5t-91.5 -124.5q-56 -48 -130.5 -74.5t-159.5 -26.5z
M512 755q-38 -43 -76 -85.5t-68 -89.5t-49 -100t-19 -117q0 -45 19.5 -77.5t51 -54t72 -32t82.5 -10.5q51 0 92.5 13.5t71 38.5t45.5 59.5t16 76.5q0 50 -21 98.5t-54.5 95.5t-76.5 93t-86 91z" />
    <glyph glyph-name="uni0648" unicode="&#x648;" horiz-adv-x="1024" arabic-form="isolated" 
d="M193 -363q151 0 254 23t163 71q52 42 76.5 107t24.5 162h-184q-70 0 -142 21t-130.5 69t-95.5 125.5t-37 189.5q0 66 11.5 119.5t29 95.5t38.5 73t41 53q55 55 126 85t152 30q71 0 133 -22t111 -66q135 -126 135 -395v-189v-189q0 -142 -41.5 -244.5t-128.5 -171.5
q-88 -69 -218.5 -102.5t-317.5 -33.5v189zM520 672q-99 0 -154 -70t-55 -197q0 -129 78 -179q19 -12 39 -19.5t39 -11t34.5 -5t25.5 -1.5h184v189q0 73 -11 123.5t-28 83.5t-38.5 50.5t-42.5 25.5t-40 9.5t-31 1.5z" />
    <glyph glyph-name="uni0649" unicode="&#x649;" horiz-adv-x="1671" arabic-form="isolated" 
d="M933 -361q100 0 173.5 17.5t121.5 55.5t71 99t23 148q-96 25 -188 50q-39 10 -82 21.5t-85.5 23t-83 21.5t-74.5 19q-47 114 -44 223.5t44 204.5t116 170.5t173 120.5t214 54.5t240 -26.5l-47 -181q-68 21 -138 20.5t-134.5 -20t-119.5 -56.5t-93.5 -88.5t-56 -116
t-7.5 -138.5l383 -95q80 -22 120 -72t40 -122q0 -131 -31 -229.5t-99 -163.5t-175.5 -98t-260.5 -33h-221q-76 0 -147 19t-134 53t-116 82t-93 106q-47 76 -71 167t-24 192q0 125 39.5 269.5t115.5 305.5q45 -21 84 -40.5t82 -40.5q-132 -282 -132 -489q0 -74 18 -141
t50 -121q51 -80 138 -125.5t190 -45.5h221v0z" />
    <glyph glyph-name="uni064A" unicode="&#x64a;" horiz-adv-x="1695" arabic-form="isolated" 
d="M933 -361q100 0 173.5 17.5t121.5 55.5t71 99t23 148q-96 25 -188 50q-39 10 -82 21.5t-85.5 23t-83 21.5t-74.5 19q-47 114 -44 223.5t44 204.5t116 170.5t173 120.5t214 54.5t240 -26.5l-47 -181q-68 21 -138 20.5t-134.5 -20t-119.5 -56.5t-93.5 -88.5t-56 -116
t-7.5 -138.5l383 -95q80 -22 120 -72t40 -122q0 -131 -31 -229.5t-99 -163.5t-175.5 -98t-260.5 -33h-221q-76 0 -147 19t-134 53t-116 82t-93 106q-47 76 -71 167t-24 192q0 125 39.5 269.5t115.5 305.5q45 -21 84 -40.5t82 -40.5q-132 -282 -132 -489q0 -74 18 -141
t50 -121q51 -80 138 -125.5t190 -45.5h221v0zM1192 -810l-162 -162l-156 162l158 160zM809 -812l-162 -162l-156 162l158 160z" />
    <glyph glyph-name="uni066E.init" unicode="&#x66e;" horiz-adv-x="671" 
d="M523 814q2 -6 8 -32t13.5 -64.5t16.5 -85t16 -94t12 -91.5t5 -77q0 -96 -31.5 -165.5t-82 -115t-113.5 -67.5t-127 -22h-255v189h255q15 0 42.5 4.5t55 22.5t48 54t20.5 100q0 22 -3.5 55.5t-9 72t-12.5 79t-14 76.5t-13 64t-10 42z" />
    <glyph glyph-name="uni066E.medi" unicode="&#x66e;" horiz-adv-x="782" 
d="M816 189v-189h-78q-91 0 -160.5 26t-111.5 78q-104 -104 -308 -104h-192v189h192q72 0 114 14.5t63.5 36t28 48t6.5 50.5v338h188v-331q0 -37 11 -63t28.5 -43.5t39 -27.5t41.5 -15t36 -6t24 -1h78z" />
    <glyph glyph-name="uni066E.fina" unicode="&#x66e;" horiz-adv-x="2220" 
d="M2255 188v-188h-46q-79 0 -153 30t-128 89q-46 -46 -116 -71q-52 -19 -121 -29t-158.5 -14.5t-202.5 -5.5t-253 -1q-102 0 -194 0.5t-173 4.5t-151 12.5t-130 24.5q-143 39 -215 123q-82 92 -82 244q0 51 7.5 102.5t16.5 94t16.5 70t8.5 29.5l180 -55l-6.5 -23t-14 -58
t-14 -77.5t-6.5 -82.5t8.5 -69.5t27 -51t48.5 -37t74 -27.5q102 -27 253 -31.5t346 -4.5q162 0 281.5 1t203.5 7.5t137.5 19.5t83.5 37t41 61t11 90v274h189v-311q0 -46 16.5 -79.5t42.5 -55t59.5 -32t66.5 -10.5h46z" />
    <glyph glyph-name="uni066F.init" unicode="&#x66f;" horiz-adv-x="1036" 
d="M-12 0v189h384q112 0 180.5 16t106.5 40t51.5 52.5t16.5 54.5h-152q-26 0 -58 2t-66.5 7.5t-69.5 16.5t-68 29q-27 16 -55 40t-50.5 59.5t-37 84t-14.5 113.5q0 81 28 153.5t80 124.5t119 79t143 27q87 0 160 -37t123 -106q54 -72 80 -178t26 -243v-138q0 -99 -39.5 -176
t-119.5 -125q-133 -85 -384 -85h-384zM526 899q-33 0 -67.5 -11.5t-62 -35t-45 -60.5t-17.5 -88q0 -33 7 -55.5t18 -37t23 -23.5t23 -15q29 -17 71 -24.5t99 -7.5h154q-2 99 -20.5 173t-50.5 121q-48 64 -132 64z" />
    <glyph glyph-name="uni066F.medi" unicode="&#x66f;" horiz-adv-x="1084" 
d="M565 246q45 16 81 40t61.5 56t39.5 73t14 93q0 30 -15.5 60t-42 54t-60.5 39t-71 15q-42 0 -80.5 -13.5t-68 -36t-46.5 -53.5t-17 -65q-2 -50 12.5 -91t41.5 -73t65.5 -56.5t85.5 -41.5zM572 865q86 0 154 -30t115 -79.5t72 -114t25 -133.5q0 -97 -27.5 -175t-83.5 -138
q76 -6 164 -6h116v-189h-116q-256 0 -428 48q-88 -24 -202 -36t-260 -12h-119v189h119q109 0 195 6q-59 61 -88 139.5t-29 173.5q0 73 30.5 138t84 114t125 77t153.5 28z" />
    <glyph glyph-name="uni066F.fina" unicode="&#x66f;" horiz-adv-x="1652" 
d="M794 -554h-100q-77 0 -148 17.5t-133.5 50.5t-114 81.5t-89.5 110.5q-54 85 -78 188.5t-17.5 221.5t43.5 247.5t105 267.5l170 -81q-56 -116 -88.5 -222.5t-40.5 -201.5t8 -176t57 -145q50 -81 135 -125.5t191 -44.5h90v2q151 0 254 23t163 71q52 42 76.5 107t24.5 162
h-184q-70 0 -142 21t-130.5 69t-95.5 125.5t-37 189.5q0 66 11.5 119.5t29 95.5t38.5 73t41 53q55 55 126 85t152 30q71 0 133 -22t111 -66q135 -126 135 -395v-189h187v-189h-187q0 -142 -41.5 -244.5t-128.5 -171.5t-214.5 -102t-311.5 -34v-2zM1111 672q-99 0 -154 -70
t-55 -197q0 -129 78 -179q19 -12 39 -19.5t39 -11t34.5 -5t25.5 -1.5h184v189q0 73 -11 123.5t-28 83.5t-38.5 50.5t-42.5 25.5t-40 9.5t-31 1.5z" />
    <glyph glyph-name="uni0671" unicode="&#x671;" horiz-adv-x="592" arabic-form="isolated" 
d="M393 0h-189v1277h189v-1277zM-14 1433l19 85h129l47 73l83 122q38 46 84 77t103 31q33 0 64.5 -12t56.5 -37.5t40.5 -64.5t15.5 -92q0 -51 -17 -85.5t-43 -56t-58.5 -31t-63.5 -9.5h-460zM446 1518q42 0 69 23t27 74q0 58 -23.5 89.5t-67.5 31.5q-32 0 -61 -20t-56 -51.5
t-51.5 -69.5t-45.5 -74q-1 -1 -1 -3h210z" />
    <glyph glyph-name="uni0679" unicode="&#x679;" horiz-adv-x="2135" arabic-form="isolated" 
d="M1965 767q22 -87 40 -183t21 -204q2 -90 -23.5 -160.5t-72 -119.5t-111.5 -75t-143 -26l-603 -2q-135 0 -265.5 0.5t-244.5 15t-205.5 49t-147.5 100.5q-82 96 -82 244q0 51 7.5 102.5t16.5 94t16.5 70t8.5 29.5l180 -55l-6.5 -23t-14 -58t-14 -77.5t-6.5 -82.5
q0 -81 45.5 -126.5t139 -66.5t236 -25t336.5 -3l603 3q40 0 70.5 14t50.5 39t30 59.5t8 74.5q-2 94 -18.5 180t-36.5 167l185 45v0zM818 670v85h100l47 73v485h83v-363q38 46 84 77t103 31q33 0 64.5 -12t56.5 -37.5t40.5 -64.5t15.5 -92q0 -51 -17 -85.5t-43 -56t-58.5 -31
t-63.5 -9.5h-412zM1230 755q42 0 69 23t27 74q0 58 -23.5 89.5t-67.5 31.5q-32 0 -61 -20t-56 -51.5t-51.5 -69.5t-45.5 -74q-1 -1 -1 -3h210z" />
    <glyph glyph-name="uni067E" unicode="&#x67e;" horiz-adv-x="2106" arabic-form="isolated" 
d="M1965 767q22 -87 40 -183t21 -204q2 -90 -23.5 -160.5t-72 -119.5t-111.5 -75t-143 -26l-603 -2q-135 0 -265.5 0.5t-244.5 15t-205.5 49t-147.5 100.5q-82 96 -82 244q0 51 7.5 102.5t16.5 94t16.5 70t8.5 29.5l180 -55l-6.5 -23t-14 -58t-14 -77.5t-6.5 -82.5
q0 -81 45.5 -126.5t139 -66.5t236 -25t336.5 -3l603 3q40 0 70.5 14t50.5 39t30 59.5t8 74.5q-2 94 -18.5 180t-36.5 167l185 45v0zM1083 -787l-144 143l140 139l142 -139zM1430 -352l-162 -162l-156 162l158 160zM1047 -354l-162 -162l-156 162l158 160z" />
    <glyph glyph-name="uni0686" unicode="&#x686;" horiz-adv-x="1455" arabic-form="isolated" 
d="M1369 591q-2 -1 -38 -12.5t-113.5 -38t-201 -70t-300.5 -109.5q-111 -41 -188 -77.5t-126.5 -72t-75.5 -72t-36 -77t-7.5 -87.5t9.5 -104q15 -117 53 -198.5t98 -131.5t141 -72.5t182 -22.5h502v-189h-502q-143 0 -256.5 33t-196.5 104t-135 182.5t-73 269.5
q-21 160 5 269.5t96 187t182 132t263 102.5l462 150q-97 39 -194 74t-178.5 61.5t-139.5 43t-77 19.5q-17 0 -35.5 -3t-36.5 -18t-35 -46.5t-32 -88.5l-183 48q77 296 324 296q7 0 16.5 -0.5t29 -5t50.5 -14t81 -26.5t121 -43.5t170 -65.5l368 -150zM932.949 -400.057
l-136.661 135.86l132.865 132.06l134.763 -132.06zM1262.26 13.2246l-153.744 -153.912l-148.05 153.912l149.948 152.012zM898.784 11.3242l-153.744 -153.911l-148.05 153.911l149.948 152.012z" />
    <glyph glyph-name="uni0688" unicode="&#x688;" horiz-adv-x="1096" arabic-form="isolated" 
d="M543 -15q-51 0 -103 4.5t-101.5 14t-95 25t-82.5 37.5l-83 47l94 165l83 -47q35 -20 86 -32.5t108 -18t115 -4.5t107 8q58 9 95.5 25.5t47.5 37.5q10 22 -3 61t-45 87l-362 547l160 104q13 -20 27 -41.5t33 -50t44 -67t61 -92.5l84 -126l112 -168q25 -38 45 -79.5
t30 -83.5t8.5 -84.5t-20.5 -83.5q-63 -141 -290 -174q-35 -5 -74 -8t-81 -3zM196 1220v85h100l47 73v485h83v-363q38 46 84 77t103 31q33 0 64.5 -12t56.5 -37.5t40.5 -64.5t15.5 -92q0 -51 -17 -85.5t-43 -56t-58.5 -31t-63.5 -9.5h-412zM608 1305q42 0 69 23t27 74
q0 58 -23.5 89.5t-67.5 31.5q-32 0 -61 -20t-56 -51.5t-51.5 -69.5t-45.5 -74q-1 -1 -1 -3h210z" />
    <glyph glyph-name="uni0691" unicode="&#x691;" horiz-adv-x="785" arabic-form="isolated" 
d="M-90 -555v189h138q103 0 178.5 24.5t125 75.5t73 130t23.5 188v624h189v-624q0 -143 -37.5 -255.5t-111.5 -190.5t-184.5 -119.5t-255.5 -41.5h-138zM125 893v85h100l47 73v485h83v-363q38 46 84 77t103 31q33 0 64.5 -12t56.5 -37.5t40.5 -64.5t15.5 -92
q0 -51 -17 -85.5t-43 -56t-58.5 -31t-63.5 -9.5h-412zM537 978q42 0 69 23t27 74q0 58 -23.5 89.5t-67.5 31.5q-32 0 -61 -20t-56 -51.5t-51.5 -69.5t-45.5 -74q-1 -1 -1 -3h210z" />
    <glyph glyph-name="uni0698" unicode="&#x698;" horiz-adv-x="859" arabic-form="isolated" 
d="M-90 -555v189h138q103 0 178.5 24.5t125 75.5t73 130t23.5 188v624h189v-624q0 -143 -37.5 -255.5t-111.5 -190.5t-184.5 -119.5t-255.5 -41.5h-138zM675 1361l-142 -139l-140 139l144 143zM724 909l-158 160l156 162l162 -162zM341 911l-158 160l156 162l162 -162z" />
    <glyph glyph-name="uni06A9" unicode="&#x6a9;" horiz-adv-x="1997" arabic-form="isolated" 
d="M1057 180q124 0 220 3t164.5 14t109.5 32t56 57q8 25 -2.5 61.5t-34.5 80t-58.5 90.5t-75.5 93q-81 89 -152 155t-127.5 112t-96.5 72.5t-60 37.5l15 227l902 388l76 -172l-791 -342q38 -28 82.5 -64.5t92.5 -81.5t98 -97.5t100 -110.5q38 -46 75 -96t66 -102.5t47 -106
t18 -106.5v-18.5t-2 -19.5q-9 -71 -40.5 -120.5t-80.5 -82t-114.5 -51t-143 -27.5t-164.5 -11t-179 -2q-102 0 -194 0.5t-173 4.5t-151 12.5t-130 24.5q-143 39 -215 123q-82 92 -82 244q0 51 7.5 102.5t16.5 94t16.5 70t8.5 29.5l180 -55l-6.5 -23t-14 -58t-14 -77.5
t-6.5 -82.5t8.5 -69.5t27 -51t48.5 -37t74 -27.5q102 -27 253 -31.5t346 -4.5z" />
    <glyph glyph-name="uni06AF" unicode="&#x6af;" horiz-adv-x="2004" arabic-form="isolated" 
d="M1057 182q124 0 220 3t164.5 14t109.5 32t56 57q8 25 -2.5 61.5t-34.5 80t-58.5 90.5t-75.5 93q-81 89 -152 155t-127.5 112t-96.5 72.5t-60 37.5l15 227l902 388l76 -172l-791 -342q38 -28 82.5 -64.5t92.5 -81.5t98 -97.5t100 -110.5q38 -46 75 -96t66 -102.5t47 -106
t18 -106.5v-18.5t-2 -19.5q-9 -71 -40.5 -120.5t-80.5 -82t-114.5 -51t-143 -27.5t-164.5 -11t-179 -2q-102 0 -194 0.5t-173 4.5t-151 12.5t-130 24.5q-143 39 -215 123q-82 92 -82 244q0 51 7.5 102.5t16.5 94t16.5 70t8.5 29.5l180 -55l-6.5 -23t-14 -58t-14 -77.5
t-6.5 -82.5t8.5 -69.5t27 -51t48.5 -37t74 -27.5q102 -27 253 -31.5t346 -4.5zM1032.07 1488.56l790.178 334.484l43.7246 -92.0596l-845.354 -360.057z" />
    <glyph glyph-name="uni06BA" unicode="&#x6ba;" horiz-adv-x="1600" arabic-form="isolated" 
d="M682 -554q-155 0 -281 67.5t-204 192.5q-54 85 -77.5 188.5t-16.5 221.5t44 247.5t103 267.5l170 -81q-56 -116 -88.5 -222.5t-40.5 -201.5t8 -176t57 -145q52 -81 136 -125.5t190 -44.5h235q115 0 187.5 24.5t113 68.5t55 106.5t14.5 138.5v703h189v-703
q0 -264 -140 -395.5t-419 -131.5h-235z" />
    <glyph glyph-name="uni06BE" unicode="&#x6be;" horiz-adv-x="1651" arabic-form="isolated" 
d="M741 263q75 33 119 91.5t44 142.5q0 50 -19.5 84.5t-47.5 55.5t-58 30.5t-52 9.5q-41 0 -74.5 -12.5t-57.5 -34.5t-37 -52.5t-13 -66.5q0 -43 10.5 -76.5t34 -62.5t60.5 -55t91 -54zM994 1052q110 -115 203 -215q40 -43 80 -86.5t74.5 -83t61 -72t39.5 -52.5
q27 -44 44.5 -85t24 -83t2.5 -86t-19 -95q-16 -58 -50.5 -105.5t-83.5 -81.5t-111 -52.5t-134 -18.5q-68 0 -141 18t-151 56q-22 9 -41 18q-17 8 -34.5 16t-28.5 14q-47 -15 -112.5 -30t-146.5 -22.5t-175.5 -3t-199.5 28.5l34 181q73 -14 129.5 -18.5t100 -4.5t76.5 4t60 7
q-72 63 -105 138.5t-33 172.5q0 76 28 140.5t77.5 111.5t117 73.5t147.5 26.5q60 0 110 -17t91 -45.5t71.5 -66t51.5 -78t31.5 -82t10.5 -77.5q0 -103 -38.5 -185.5t-113.5 -145.5q42 -17 89.5 -28t94.5 -11q61 0 113.5 24.5t84.5 90.5q20 41 10.5 90t-41 103.5t-80.5 114
t-107.5 121.5t-122 124.5t-124.5 124.5z" />
    <glyph glyph-name="uni06C0" unicode="&#x6c0;" horiz-adv-x="1023" arabic-form="isolated" 
d="M525 0q-90 0 -165.5 27.5t-131 76t-86.5 115t-31 144.5q0 100 26.5 176.5t67.5 138t90 112.5t94 100l-62 69l140 127q52 -58 107.5 -116.5t108.5 -118t99.5 -119t81.5 -119t55.5 -119t19.5 -117.5q-1 -81 -32.5 -151.5t-91.5 -124.5q-56 -48 -130.5 -74.5t-159.5 -26.5z
M512 755q-38 -43 -76 -85.5t-68 -89.5t-49 -100t-19 -117q0 -45 19.5 -77.5t51 -54t72 -32t82.5 -10.5q51 0 92.5 13.5t71 38.5t45.5 59.5t16 76.5q0 50 -21 98.5t-54.5 95.5t-76.5 93t-86 91zM199 1188l9 127l124 37q-54 43 -74 104q-13 39 -7.5 79t25 74.5t51 60
t69.5 36.5q27 9 54 9.5t52.5 -3t48.5 -11t43 -14.5l-25 -101q-17 4 -36 8t-38 6.5t-36 2t-28 -4.5q-17 -6 -31.5 -16.5t-24 -24t-12.5 -30.5t3 -37t22.5 -36.5t44.5 -25.5t67 -9t92 14l85 25l34 -108z" />
    <glyph glyph-name="uni06C1" unicode="&#x6c1;" horiz-adv-x="1051" arabic-form="isolated" 
d="M525 0q-90 0 -165.5 27.5t-131 76t-86.5 115t-31 144.5q0 100 26.5 176.5t67.5 138t90 112.5t94 100l-62 69l140 127q52 -58 107.5 -116.5t108.5 -118t99.5 -119t81.5 -119t55.5 -119t19.5 -117.5q-1 -81 -32.5 -151.5t-91.5 -124.5q-56 -48 -130.5 -74.5t-159.5 -26.5z
M512 755q-38 -43 -76 -85.5t-68 -89.5t-49 -100t-19 -117q0 -45 19.5 -77.5t51 -54t72 -32t82.5 -10.5q51 0 92.5 13.5t71 38.5t45.5 59.5t16 76.5q0 50 -21 98.5t-54.5 95.5t-76.5 93t-86 91z" />
    <glyph glyph-name="uni06C2.fina" unicode="&#x6c2;" horiz-adv-x="1286" 
d="M1302 0h-58q-29 0 -63.5 3t-72.5 12t-78 24t-80 39q-78 49 -130.5 122t-76.5 168q-17 66 -33 128t-32 125.5t-32.5 131.5t-35.5 146l-120 -25q-105 -27 -143 -94q-29 -49 -31.5 -118t10 -146t34 -156t42.5 -148l28 -92l-182 -51q-7 21 -13 43.5t-14 46.5
q-25 85 -50 179.5t-36.5 188.5t-2.5 183t52 164q81 140 262 182q20 5 55.5 13t70.5 15.5t61.5 12.5t28.5 5l111 -72q22 -96 41.5 -176.5t37.5 -153t36 -141.5t37 -143t58 -118.5t85 -68.5t93 -32t83 -8h58v-189zM150 1146l9 127l124 37q-54 43 -74 104q-13 39 -7.5 79
t25 74.5t51 60t69.5 36.5q27 9 54 9.5t52.5 -3t48.5 -11t43 -14.5l-25 -101q-17 4 -36 8t-38 6.5t-36 2t-28 -4.5q-17 -6 -31.5 -16.5t-24 -24t-12.5 -30.5t3 -37t22.5 -36.5t44.5 -25.5t67 -9t92 14l85 25l34 -108z" />
    <glyph glyph-name="uni06C3.fina" unicode="&#x6c3;" horiz-adv-x="1291" 
d="M1302 0h-58q-29 0 -63.5 3t-72.5 12t-78 24t-80 39q-78 49 -130.5 122t-76.5 168q-17 66 -33 128t-32 125.5t-32.5 131.5t-35.5 146l-120 -25q-105 -27 -143 -94q-29 -49 -31.5 -118t10 -146t34 -156t42.5 -148l28 -92l-182 -51q-7 21 -13 43.5t-14 46.5
q-25 85 -50 179.5t-36.5 188.5t-2.5 183t52 164q81 140 262 182q20 5 55.5 13t70.5 15.5t61.5 12.5t28.5 5l111 -72q22 -96 41.5 -176.5t37.5 -153t36 -141.5t37 -143t58 -118.5t85 -68.5t93 -32t83 -8h58v-189zM668 1215l-158 160l156 162l162 -162zM285 1217l-158 160
l156 162l162 -162z" />
    <glyph glyph-name="uni06CC" unicode="&#x6cc;" horiz-adv-x="1689" arabic-form="isolated" 
d="M933 -361q100 0 173.5 17.5t121.5 55.5t71 99t23 148q-96 25 -188 50q-39 10 -82 21.5t-85.5 23t-83 21.5t-74.5 19q-47 114 -44 223.5t44 204.5t116 170.5t173 120.5t214 54.5t240 -26.5l-47 -181q-68 21 -138 20.5t-134.5 -20t-119.5 -56.5t-93.5 -88.5t-56 -116
t-7.5 -138.5l383 -95q80 -22 120 -72t40 -122q0 -131 -31 -229.5t-99 -163.5t-175.5 -98t-260.5 -33h-221q-76 0 -147 19t-134 53t-116 82t-93 106q-47 76 -71 167t-24 192q0 125 39.5 269.5t115.5 305.5q45 -21 84 -40.5t82 -40.5q-132 -282 -132 -489q0 -74 18 -141
t50 -121q51 -80 138 -125.5t190 -45.5h221v0z" />
    <glyph glyph-name="uni06D2" unicode="&#x6d2;" horiz-adv-x="1651" arabic-form="isolated" 
d="M1634 -364v-188h-1145q-84 0 -156 26.5t-125 76t-83 120t-30 157.5q0 76 32.5 142t87.5 115t126 76.5t148 27.5h403v-189h-395q-43 0 -83.5 -13.5t-72 -38t-50.5 -58.5t-19 -74t19 -73t49.5 -57t69.5 -37t79 -13h1145z" />
    <glyph glyph-name="uni06D3" unicode="&#x6d3;" horiz-adv-x="1647" arabic-form="isolated" 
d="M1634 -364v-188h-1145q-84 0 -156 26.5t-125 76t-83 120t-30 157.5q0 76 32.5 142t87.5 115t126 76.5t148 27.5h403v-189h-395q-43 0 -83.5 -13.5t-72 -38t-50.5 -58.5t-19 -74t19 -73t49.5 -57t69.5 -37t79 -13h1145zM183 322l9 127l124 37q-54 43 -74 104
q-13 39 -7.5 79t25 74.5t51 60t69.5 36.5q27 9 54 9.5t52.5 -3t48.5 -11t43 -14.5l-25 -101q-17 4 -36 8t-38 6.5t-36 2t-28 -4.5q-17 -6 -31.5 -16.5t-24 -24t-12.5 -30.5t3 -37t22.5 -36.5t44.5 -25.5t67 -9t92 14l85 25l34 -108z" />
    <glyph glyph-name="uniFB51" unicode="&#x671;" horiz-adv-x="647" arabic-form="final" 
d="M666 0q-95 1 -163.5 14.5t-116 39t-76 64t-44.5 90t-21 115.5t-5 142v809h189v-809q0 -87 5.5 -141t29 -83.5t71 -40t131.5 -11.5v-189zM-14 1433l19 85h129l47 73l83 122q38 46 84 77t103 31q33 0 64.5 -12t56.5 -37.5t40.5 -64.5t15.5 -92q0 -51 -17 -85.5t-43 -56
t-58.5 -31t-63.5 -9.5h-460zM446 1518q42 0 69 23t27 74q0 58 -23.5 89.5t-67.5 31.5q-32 0 -61 -20t-56 -51.5t-51.5 -69.5t-45.5 -74q-1 -1 -1 -3h210z" />
    <glyph glyph-name="uniFB57" unicode="&#x67e;" horiz-adv-x="2243" arabic-form="final" 
d="M2255 188v-188h-46q-79 0 -153 30t-128 89q-46 -46 -116 -71q-52 -19 -121 -29t-158.5 -14.5t-202.5 -5.5t-253 -1q-102 0 -194 0.5t-173 4.5t-151 12.5t-130 24.5q-143 39 -215 123q-82 92 -82 244q0 51 7.5 102.5t16.5 94t16.5 70t8.5 29.5l180 -55l-6.5 -23t-14 -58
t-14 -77.5t-6.5 -82.5t8.5 -69.5t27 -51t48.5 -37t74 -27.5q102 -27 253 -31.5t346 -4.5q162 0 281.5 1t203.5 7.5t137.5 19.5t83.5 37t41 61t11 90v274h189v-311q0 -46 16.5 -79.5t42.5 -55t59.5 -32t66.5 -10.5h46zM1082 -786l-144 143l140 139l142 -139zM1429 -351
l-162 -162l-156 162l158 160zM1046 -353l-162 -162l-156 162l158 160z" />
    <glyph glyph-name="uniFB58" unicode="&#x67e;" horiz-adv-x="876" arabic-form="initial" 
d="M675 814q2 -6 8 -32t13.5 -64.5t16.5 -85t16 -94t12 -91.5t5 -77q0 -96 -31.5 -165.5t-82 -115t-113.5 -67.5t-127 -22h-414v189h414q15 0 42.5 4.5t55 22.5t48 54t20.5 100q0 22 -3.5 55.5t-9 72t-12.5 79t-14 76.5t-13 64t-10 42zM427 -789l-144 143l140 139l142 -139z
M774 -354l-162 -162l-156 162l158 160zM391 -356l-162 -162l-156 162l158 160z" />
    <glyph glyph-name="uniFB59" unicode="&#x67e;" horiz-adv-x="1049" arabic-form="medial" 
d="M1062 189v-189h-165q-91 0 -160.5 26t-111.5 78q-104 -104 -308 -104h-330v189h330q72 0 114 14.5t63.5 36t28 48t6.5 50.5v338h188v-331q0 -37 11.5 -63t28.5 -43.5t38.5 -27.5t41.5 -15t36 -6t24 -1h165zM486 -784l-144 143l140 139l142 -139zM833 -349l-162 -162
l-156 162l158 160zM450 -351l-162 -162l-156 162l158 160z" />
    <glyph glyph-name="uniFB67" unicode="&#x679;" horiz-adv-x="2243" arabic-form="final" 
d="M2255 188v-188h-46q-79 0 -153 30t-128 89q-46 -46 -116 -71q-52 -19 -121 -29t-158.5 -14.5t-202.5 -5.5t-253 -1q-102 0 -194 0.5t-173 4.5t-151 12.5t-130 24.5q-143 39 -215 123q-82 92 -82 244q0 51 7.5 102.5t16.5 94t16.5 70t8.5 29.5l180 -55l-6.5 -23t-14 -58
t-14 -77.5t-6.5 -82.5t8.5 -69.5t27 -51t48.5 -37t74 -27.5q102 -27 253 -31.5t346 -4.5q162 0 281.5 1t203.5 7.5t137.5 19.5t83.5 37t41 61t11 90v274h189v-311q0 -46 16.5 -79.5t42.5 -55t59.5 -32t66.5 -10.5h46zM830 680v85h100l47 73v485h83v-363q38 46 84 77t103 31
q33 0 64.5 -12t56.5 -37.5t40.5 -64.5t15.5 -92q0 -51 -17 -85.5t-43 -56t-58.5 -31t-63.5 -9.5h-412zM1242 765q42 0 69 23t27 74q0 58 -23.5 89.5t-67.5 31.5q-32 0 -61 -20t-56 -51.5t-51.5 -69.5t-45.5 -74q-1 -1 -1 -3h210z" />
    <glyph glyph-name="uniFB68" unicode="&#x679;" horiz-adv-x="873" arabic-form="initial" 
d="M675 814q2 -6 8 -32t13.5 -64.5t16.5 -85t16 -94t12 -91.5t5 -77q0 -96 -31.5 -165.5t-82 -115t-113.5 -67.5t-127 -22h-414v189h414q15 0 42.5 4.5t55 22.5t48 54t20.5 100q0 22 -3.5 55.5t-9 72t-12.5 79t-14 76.5t-13 64t-10 42zM181 990v85h100l47 73v485h83v-363
q38 46 84 77t103 31q33 0 64.5 -12t56.5 -37.5t40.5 -64.5t15.5 -92q0 -51 -17 -85.5t-43 -56t-58.5 -31t-63.5 -9.5h-412zM593 1075q42 0 69 23t27 74q0 58 -23.5 89.5t-67.5 31.5q-32 0 -61 -20t-56 -51.5t-51.5 -69.5t-45.5 -74q-1 -1 -1 -3h210z" />
    <glyph glyph-name="uniFB69" unicode="&#x679;" horiz-adv-x="1049" arabic-form="medial" 
d="M1062 189v-189h-165q-91 0 -160.5 26t-111.5 78q-104 -104 -308 -104h-330v189h330q72 0 114 14.5t63.5 36t28 48t6.5 50.5v338h188v-331q0 -37 11.5 -63t28.5 -43.5t38.5 -27.5t41.5 -15t36 -6t24 -1h165zM146 856v85h100l47 73v485h83v-363q38 46 84 77t103 31
q33 0 64.5 -12t56.5 -37.5t40.5 -64.5t15.5 -92q0 -51 -17 -85.5t-43 -56t-58.5 -31t-63.5 -9.5h-412zM558 941q42 0 69 23t27 74q0 58 -23.5 89.5t-67.5 31.5q-32 0 -61 -20t-56 -51.5t-51.5 -69.5t-45.5 -74q-1 -1 -1 -3h210z" />
    <glyph glyph-name="uniFB6A" unicode="&#x6a4;" horiz-adv-x="2097" arabic-form="isolated" 
d="M1057 -3q-102 0 -193 0.5t-171.5 4.5t-150.5 12.5t-129 24.5q-143 39 -215 123q-82 92 -82 244q0 51 7.5 102.5t16.5 94t16.5 70t8.5 29.5l180 -55l-6.5 -23t-14 -58t-14 -77.5t-6.5 -82.5t8.5 -69.5t27 -51t48.5 -37t74 -27.5q102 -27 251 -31.5t344 -4.5h120
q56 0 130 0.5t159 0.5q75 0 129.5 7.5t93.5 19.5t63.5 28.5t39 34.5t20.5 36.5t8 35.5q-32 0 -71 0.5t-80 0.5q-75 0 -149.5 14t-134.5 53t-97.5 107t-37.5 176q0 81 27.5 151t76.5 122.5t117 82.5t149 30q111 0 186 -48.5t120.5 -128t64.5 -181t19 -207.5v-137
q0 -114 -45 -188.5t-120.5 -118.5t-174 -61.5t-204.5 -17.5h-409zM1620 897q-34 0 -66.5 -11.5t-58 -36t-41.5 -62t-16 -88.5q0 -38 9 -68t34.5 -51t70.5 -32t117 -11h152q-5 64 -12.5 128t-27 115.5t-57.5 84t-104 32.5zM1770 1715l-142 -139l-140 139l144 143zM1819 1263
l-158 160l156 162l162 -162zM1436 1265l-158 160l156 162l162 -162z" />
    <glyph glyph-name="uniFB6B" unicode="&#x6a4;" horiz-adv-x="2128" arabic-form="final" 
d="M1024 162q27 0 75 1.5t101 4.5t102.5 8t80.5 13q-33 30 -56.5 66t-38.5 75.5t-22 82t-7 84.5q0 73 30.5 140t84 117.5t125 80.5t153.5 30q86 0 154 -31.5t115 -83.5t72 -118t25 -135q0 -87 -27.5 -160t-82.5 -142q16 -1 37.5 -2t45 -2t46 -1.5t40.5 -0.5h73v-189h-73
q-130 0 -238.5 11.5t-196.5 36.5q-49 -18 -124.5 -32t-161 -23t-173 -14t-159.5 -5q-129 0 -247 3t-221.5 20.5t-191 56t-154.5 109.5q-43 45 -62.5 107t-19.5 137q0 51 7.5 102.5t16.5 94t16.5 70t8.5 29.5l180 -55l-6.5 -23t-14.5 -58t-14 -77.5t-6 -82.5q0 -60 30.5 -102
t82.5 -69t121 -42t147.5 -22t162 -8.5t164.5 -1.5zM1440 496q0 -50 14.5 -88.5t41 -68.5t64.5 -53t85 -40q45 17 81 39.5t61.5 52.5t39.5 69t14 90q0 34 -15.5 66.5t-42 57.5t-60.5 40t-71 15q-42 0 -80.5 -14t-68 -38t-46.5 -57t-17 -71zM1786 1530l-142 -139l-140 139
l144 143zM1835 1078l-158 160l156 162l162 -162zM1452 1080l-158 160l156 162l162 -162z" />
    <glyph glyph-name="uniFB6C" unicode="&#x6a4;" horiz-adv-x="997" arabic-form="initial" 
d="M-12 0v189h384q112 0 180.5 16t106.5 40t51.5 52.5t16.5 54.5h-152q-26 0 -58 2t-66.5 7.5t-69.5 16.5t-68 29q-27 16 -55 40t-50.5 59.5t-37 84t-14.5 113.5q0 81 28 153.5t80 124.5t119 79t143 27q87 0 160 -37t123 -106q54 -72 80 -178t26 -243v-138q0 -99 -39.5 -176
t-119.5 -125q-133 -85 -384 -85h-384zM526 899q-33 0 -67.5 -11.5t-62 -35t-45 -60.5t-17.5 -88q0 -33 7 -55.5t18 -37t23 -23.5t23 -15q29 -17 71 -24.5t99 -7.5h154q-2 99 -20.5 173t-50.5 121q-48 64 -132 64zM663 1664l-142 -139l-140 139l144 143zM712 1212l-158 160
l156 162l162 -162zM329 1214l-158 160l156 162l162 -162z" />
    <glyph glyph-name="uniFB6D" unicode="&#x6a4;" horiz-adv-x="1092" arabic-form="medial" 
d="M565 246q45 16 81 40t61.5 56t39.5 73t14 93q0 30 -15.5 60t-42 54t-60.5 39t-71 15q-42 0 -80.5 -13.5t-68 -36t-46.5 -53.5t-17 -65q-2 -50 12.5 -91t41.5 -73t65.5 -56.5t85.5 -41.5zM572 865q86 0 154 -30t115 -79.5t72 -114t25 -133.5q0 -97 -27.5 -175t-83.5 -138
q76 -6 164 -6h116v-189h-116q-256 0 -428 48q-88 -24 -202 -36t-260 -12h-119v189h119q109 0 195 6q-59 61 -88 139.5t-29 173.5q0 73 30.5 138t84 114t125 77t153.5 28zM680 1547l-142 -139l-140 139l144 143zM729 1095l-158 160l156 162l162 -162zM346 1097l-158 160
l156 162l162 -162z" />
    <glyph glyph-name="uniFB7B" unicode="&#x686;" horiz-adv-x="1575" arabic-form="final" 
d="M1064 474l105 8q0 -87 11 -143.5t32 -89.5t52 -46.5t71 -13.5h253v-189h-253q-63 0 -124.5 21t-110.5 69.5t-79.5 127.5t-30.5 196zM1342 532q-2 -1 -38 -12.5t-113.5 -38t-201 -70t-300.5 -109.5q-111 -41 -188 -77.5t-126.5 -72t-75.5 -72t-36 -77t-7.5 -87.5t9.5 -104
q15 -117 53 -198.5t98 -131.5t141 -72.5t182 -22.5h502v-189h-502q-143 0 -256.5 33t-196.5 104t-135 182.5t-73 269.5q-21 160 5 269.5t96 187t182 132t263 102.5l462 150q-97 39 -194 74t-178.5 61.5t-139.5 43t-77 19.5q-17 0 -35.5 -3t-36.5 -18t-35 -46.5t-32 -88.5
l-183 48q77 296 324 296q7 0 16.5 -0.5t29 -5t50.5 -14t81 -26.5t121 -43.5t170 -65.5l368 -150zM784.924 -506.919l-132.987 132.168l129.293 128.472l131.141 -128.472zM1105.39 -104.868l-149.61 -149.729l-144.069 149.729l145.916 147.881zM751.677 -106.717
l-149.61 -149.729l-144.07 149.729l145.917 147.881z" />
    <glyph glyph-name="uniFB7C" unicode="&#x686;" horiz-adv-x="1396" arabic-form="initial" 
d="M1288 400q-6 -4 -52 -35t-122.5 -75.5t-178.5 -95.5t-219.5 -94t-245.5 -71.5t-256 -28.5h-224v189h224q112 0 226.5 26.5t220.5 66t199 86t163 87.5q-97 39 -193.5 76t-176.5 65.5t-137.5 46.5t-76.5 21q-17 0 -35.5 -3t-36.5 -18t-35 -46.5t-32 -88.5l-183 48
q77 296 324 296q6 0 16 -0.5t29 -5t51 -14t81.5 -26.5t120.5 -43.5t170 -65.5l354 -131zM685 -799l-144 143l140 139l142 -139zM1032 -364l-162 -162l-156 162l158 160zM649 -366l-162 -162l-156 162l158 160z" />
    <glyph glyph-name="uniFB7D" unicode="&#x686;" horiz-adv-x="1536" arabic-form="medial" 
d="M1335 400q-6 -4 -50 -34t-117 -73q11 -37 35.5 -57.5t51.5 -31t51 -13t34 -2.5h210v-189h-210q-73 0 -136.5 21.5t-114.5 63.5q-58 49 -88 118q-77 -38 -165 -74.5t-182.5 -65t-194 -46t-198.5 -17.5h-281v189h281q112 0 226.5 26.5t220.5 66t199 86t163 87.5
q-97 39 -193.5 76t-176.5 65.5t-137.5 46.5t-76.5 21q-17 0 -35.5 -3t-36.5 -18t-35 -46.5t-32 -88.5l-183 48q77 296 324 296q7 0 16.5 -0.5t29 -5t50.5 -14t81 -26.5t121 -43.5t170 -65.5l354 -131zM694 -800l-144 143l140 139l142 -139zM1041 -365l-162 -162l-156 162
l158 160zM658 -367l-162 -162l-156 162l158 160z" />
    <glyph glyph-name="uniFB89" unicode="&#x688;" horiz-adv-x="1240" arabic-form="final" 
d="M1265 189v-189h-37q-149 0 -275 124q-75 -101 -263 -128q-35 -5 -74 -8t-81 -3q-51 0 -103 4.5t-101.5 14t-95.5 25t-83 36.5l-82 48l94 165l83 -48q35 -20 85.5 -32.5t107.5 -18t115 -4t108 8.5q58 9 95.5 25.5t47.5 37.5q14 16 4.5 48t-33.5 69l-375 571l159 104
l388 -592q30 -43 60.5 -88.5t64.5 -83t71.5 -62t82.5 -24.5h37zM286 1248v85h100l47 73v485h83v-363q38 46 84 77t103 31q33 0 64.5 -12t56.5 -37.5t40.5 -64.5t15.5 -92q0 -51 -17 -85.5t-43 -56t-58.5 -31t-63.5 -9.5h-412zM698 1333q42 0 69 23t27 74q0 58 -23.5 89.5
t-67.5 31.5q-32 0 -61 -20t-56 -51.5t-51.5 -69.5t-45.5 -74q-1 -1 -1 -3h210z" />
    <glyph glyph-name="uniFB8B" unicode="&#x698;" horiz-adv-x="844" arabic-form="final" 
d="M857 0h-43q-96 0 -177 38q0 -140 -39 -250t-114 -186.5t-184.5 -116.5t-251.5 -40h-138v189h138q103 0 178.5 24.5t125 75.5t73 130t23.5 188v624h189v-331q0 -56 23.5 -87.5t54.5 -46.5t59.5 -18.5t39.5 -3.5h43v-189zM664 1365l-142 -139l-140 139l144 143zM713 913
l-158 160l156 162l162 -162zM330 915l-158 160l156 162l162 -162z" />
    <glyph glyph-name="uniFB8D" unicode="&#x691;" horiz-adv-x="848" arabic-form="final" 
d="M857 0h-43q-96 0 -177 38q0 -140 -39 -250t-114 -186.5t-184.5 -116.5t-251.5 -40h-138v189h138q103 0 178.5 24.5t125 75.5t73 130t23.5 188v624h189v-331q0 -56 23.5 -87.5t54.5 -46.5t59.5 -18.5t39.5 -3.5h43v-189zM161 887v85h100l47 73v485h83v-363q38 46 84 77
t103 31q33 0 64.5 -12t56.5 -37.5t40.5 -64.5t15.5 -92q0 -51 -17 -85.5t-43 -56t-58.5 -31t-63.5 -9.5h-412zM573 972q42 0 69 23t27 74q0 58 -23.5 89.5t-67.5 31.5q-32 0 -61 -20t-56 -51.5t-51.5 -69.5t-45.5 -74q-1 -1 -1 -3h210z" />
    <glyph glyph-name="uniFB8F" unicode="&#x6a9;" horiz-adv-x="2183" arabic-form="final" 
d="M1056 183q114 0 199.5 6.5t145 20t94.5 32.5t48 45q17 33 16.5 69t-13.5 73t-36 75.5t-51 77.5l-316 441l35 164l899 412l77 -172l-806 -370l342 -481q79 -105 137 -178.5t112 -120t111 -67.5t133 -21h21v-189h-21q-86 0 -152.5 17t-121.5 48.5t-103 76.5t-96 100
q-20 -62 -55.5 -104t-83.5 -69.5t-106.5 -42.5t-124.5 -22t-138 -8t-146 -1q-102 0 -194 0.5t-173 4.5t-151 12.5t-130 24.5q-143 39 -215 123q-82 92 -82 244q0 51 7.5 102.5t16.5 94t16.5 70t8.5 29.5l180 -55l-6.5 -23t-14 -58t-14 -77.5t-6.5 -82.5t8.5 -69.5t27 -51
t48.5 -37t74 -27.5q102 -27 253 -31.5t346 -4.5z" />
    <glyph glyph-name="uniFB90" unicode="&#x6a9;" horiz-adv-x="1153" arabic-form="initial" 
d="M-23 0v189h586q72 0 119.5 16.5t61.5 45.5q13 29 0.5 71.5t-43.5 94t-76 108.5t-97 114t-107 111.5t-106 101t-93 82t-69 54.5l19 213l915 402l76 -172l-801 -350q30 -30 77 -75.5t102 -101t112 -118t108 -125.5t90.5 -123.5t58.5 -111.5q17 -44 23.5 -82t5.5 -69.5
t-7.5 -56.5t-14.5 -43q-11 -25 -34 -55.5t-64.5 -57t-103.5 -44.5t-152 -18h-586z" />
    <glyph glyph-name="uniFB91" unicode="&#x6a9;" horiz-adv-x="1258" arabic-form="medial" 
d="M1268 0h-15q-89 0 -158.5 17t-126.5 48.5t-105 76t-94 99.5q-2 -5 -4 -9t-4 -9q-28 -55 -78.5 -99t-119.5 -73q-59 -26 -131 -38.5t-150 -12.5h-294v189h294q58 0 108.5 8.5t91 24t69 37.5t42.5 49q24 49 4.5 119t-82.5 155q-89 125 -151 212t-101 142q-46 64 -75 105
l37 140l918 424l78 -173l-819 -375l397 -551q61 -82 109 -141.5t97.5 -98.5t108 -58t139.5 -19h15v-189z" />
    <glyph glyph-name="uniFB93" unicode="&#x6af;" horiz-adv-x="2184" arabic-form="final" 
d="M1056 183q114 0 199.5 6.5t145 20t94.5 32.5t48 45q17 33 16.5 69t-13.5 73t-36 75.5t-51 77.5l-316 441l35 164l899 412l77 -172l-806 -370l342 -481q79 -105 137 -178.5t112 -120t111 -67.5t133 -21h21v-189h-21q-86 0 -152.5 17t-121.5 48.5t-103 76.5t-96 100
q-20 -62 -55.5 -104t-83.5 -69.5t-106.5 -42.5t-124.5 -22t-138 -8t-146 -1q-102 0 -194 0.5t-173 4.5t-151 12.5t-130 24.5q-143 39 -215 123q-82 92 -82 244q0 51 7.5 102.5t16.5 94t16.5 70t8.5 29.5l180 -55l-6.5 -23t-14 -58t-14 -77.5t-6.5 -82.5t8.5 -69.5t27 -51
t48.5 -37t74 -27.5q102 -27 253 -31.5t346 -4.5zM1226 1478l759 327l42 -90l-812 -352z" />
    <glyph glyph-name="uniFB94" unicode="&#x6af;" horiz-adv-x="1180" arabic-form="initial" 
d="M-23 0v189h586q72 0 119.5 16.5t61.5 45.5q13 29 0.5 71.5t-43.5 94t-76 108.5t-97 114t-107 111.5t-106 101t-93 82t-69 54.5l19 213l915 402l76 -172l-801 -350q30 -30 77 -75.5t102 -101t112 -118t108 -125.5t90.5 -123.5t58.5 -111.5q17 -44 23.5 -82t5.5 -69.5
t-7.5 -56.5t-14.5 -43q-11 -25 -34 -55.5t-64.5 -57t-103.5 -44.5t-152 -18h-586zM205 1487l759 327l42 -90l-812 -352z" />
    <glyph glyph-name="uniFB95" unicode="&#x6af;" horiz-adv-x="1252" arabic-form="medial" 
d="M1268 0h-15q-89 0 -158.5 17t-126.5 48.5t-105 76t-94 99.5q-2 -5 -4 -9t-4 -9q-28 -55 -78.5 -99t-119.5 -73q-59 -26 -131 -38.5t-150 -12.5h-294v189h294q58 0 108.5 8.5t91 24t69 37.5t42.5 49q24 49 4.5 119t-82.5 155q-89 125 -151 212t-101 142q-46 64 -75 105
l37 140l918 424l78 -173l-819 -375l397 -551q61 -82 109 -141.5t97.5 -98.5t108 -58t139.5 -19h15v-189zM254 1477l759 327l42 -90l-812 -352z" />
    <glyph glyph-name="uniFB9F" unicode="&#x6ba;" horiz-adv-x="1684" arabic-form="final" 
d="M682 -554q-155 0 -281 67.5t-204 192.5q-54 85 -77.5 188.5t-16.5 221.5t44 247.5t103 267.5l170 -81q-56 -116 -88.5 -222.5t-40.5 -201.5t8 -176t57 -145q52 -81 136 -125.5t190 -44.5h235q115 0 187.5 24.5t113 68.5t55 106.5t14.5 138.5v392v8v303h189v-311
q1 -40 14.5 -72.5t36.5 -55.5t55.5 -35.5t72.5 -12.5h39v-189h-39q-98 0 -179 43v-70q0 -264 -140 -395.5t-419 -131.5h-235z" />
    <glyph glyph-name="uniFBA5" unicode="&#x6c0;" horiz-adv-x="1268" arabic-form="final" 
d="M1275 0h-25q-160 0 -279.5 68.5t-183.5 191.5q-32 -44 -76.5 -76.5t-100.5 -57.5q-32 -13 -74 -21t-89 -8t-96.5 11t-96.5 37q-72 38 -115.5 100.5t-57.5 147.5q-19 104 12.5 201.5t109.5 178.5q137 140 387 214l-19 108l184 39q24 -100 42 -177.5t32 -139.5
q3 -12 9.5 -40t15.5 -64.5t19 -78.5t20 -82t19 -75t16 -58q20 -75 59 -120.5t85 -70t93.5 -32t84.5 -7.5h25v-189zM640 805q-99 -29 -175 -69t-125.5 -88.5t-70.5 -104.5t-10 -117q7 -42 30 -70.5t54 -45.5q22 -13 48 -18.5t52 -6t50.5 3.5t43.5 12q126 52 147 189
q7 50 2.5 89.5t-7.5 53.5zM295 1243l9 127l124 37q-54 43 -74 104q-13 39 -7.5 79t25 74.5t51 60t69.5 36.5q27 9 54 9.5t52.5 -3t48.5 -11t43 -14.5l-25 -101q-17 4 -36 8t-38 6.5t-36 2t-28 -4.5q-17 -6 -31.5 -16.5t-24 -24t-12.5 -30.5t3 -37t22.5 -36.5t44.5 -25.5
t67 -9t92 14l85 25l34 -108z" />
    <glyph glyph-name="uniFBA7" unicode="&#x6c1;" horiz-adv-x="1290" arabic-form="final" 
d="M1302 0h-58q-29 0 -63.5 3t-72.5 12t-78 24t-80 39q-78 49 -130.5 122t-76.5 168q-17 66 -33 128t-32 125.5t-32.5 131.5t-35.5 146l-120 -25q-105 -27 -143 -94q-29 -49 -31.5 -118t10 -146t34 -156t42.5 -148l28 -92l-182 -51q-7 21 -13 43.5t-14 46.5
q-25 85 -50 179.5t-36.5 188.5t-2.5 183t52 164q81 140 262 182q20 5 55.5 13t70.5 15.5t61.5 12.5t28.5 5l111 -72q22 -96 41.5 -176.5t37.5 -153t36 -141.5t37 -143t58 -118.5t85 -68.5t93 -32t83 -8h58v-189z" />
    <glyph glyph-name="uniFBA8" unicode="&#x6c1;" horiz-adv-x="706" arabic-form="initial" 
d="M471 -612q-1 -29 -14.5 -53t-35.5 -42t-49 -28t-55 -10q-43 0 -75.5 16.5t-54 45t-32.5 65t-11 77.5q0 107 65 205t178 175l53 -80q-28 -18 -56.5 -43t-52 -52.5t-39 -55t-17 -50t13 -38t50.5 -17.5q29 -4 52 -11.5t40 -20.5t27 -33t13 -50zM523 814q2 -6 8 -32
t13.5 -64.5t16.5 -85t16 -94t12 -91.5t5 -77q0 -96 -31.5 -165.5t-82 -115t-113.5 -67.5t-127 -22h-255v189h255q15 0 42.5 4.5t55 22.5t48 54t20.5 100q0 22 -3.5 55.5t-9 72t-12.5 79t-14 76.5t-13 64t-10 42z" />
    <glyph glyph-name="uniFBA9" unicode="&#x6c1;" horiz-adv-x="1186" arabic-form="medial" 
d="M404 21q2 -60 21 -131t51.5 -138.5t78.5 -125t102 -91.5q-14 60 -15 131.5t12.5 144t42 141t73 121t105.5 84.5t140 32h184v-189h-184q-43 -17 -79.5 -51t-62 -78.5t-39.5 -97t-14 -107.5t16.5 -110.5t51.5 -104.5l-78 -149q-90 1 -166.5 30.5t-140.5 80t-114 118
t-86.5 145t-58.5 160.5t-29 164h-230v189h412z" />
    <glyph glyph-name="uniFBAB" unicode="&#x6be;" horiz-adv-x="1744" arabic-form="final" 
d="M1004 1117q110 -115 203 -215q40 -43 80 -86.5t74.5 -83t61 -72t39.5 -52.5q27 -44 44.5 -85t24 -83t2.5 -86t-19 -95q-11 -38 -28 -70h279v-189h-624v1h-6q-33 0 -79.5 6t-95.5 16.5t-96.5 26t-83.5 34.5q-47 -15 -116 -29.5t-148 -26.5t-161.5 -19.5t-154.5 -7.5
l38 189l308 36q-42 26 -75 65.5t-56 87t-35.5 98.5t-12.5 99q0 76 28 140.5t77.5 111.5t117 73.5t147.5 26.5q60 0 110 -17t91 -45.5t71.5 -66t51.5 -78t31.5 -82t10.5 -77.5q0 -103 -38.5 -185.5t-113.5 -145.5q42 -17 89.5 -28t94.5 -11q61 0 113.5 24.5t84.5 90.5
q20 41 10.5 90t-41 103.5t-80.5 114t-107.5 121.5t-122 124.5t-124.5 124.5zM751 328q75 33 119 91.5t44 142.5q0 50 -19.5 84.5t-47.5 55.5t-58 30.5t-52 9.5q-41 0 -74.5 -12.5t-57.5 -34.5t-37 -52.5t-13 -66.5q0 -43 10.5 -76.5t34 -62.5t60.5 -55t91 -54z" />
    <glyph glyph-name="uniFBAC" unicode="&#x6be;" horiz-adv-x="1455" arabic-form="initial" 
d="M625 258q37 16 68.5 40t55 54.5t36.5 66.5t13 78q0 50 -21 84.5t-50 56t-60.5 31t-53.5 9.5q-41 0 -75.5 -12.5t-60 -34.5t-40 -53t-14.5 -67q0 -43 11.5 -77.5t36 -64t62.5 -56.5t92 -55zM880 1052q110 -115 203 -215q40 -43 80 -86.5t74.5 -83t61 -72t39.5 -52.5
q27 -44 44.5 -85t24 -83t2.5 -86t-19 -95q-16 -58 -50.5 -105.5t-83.5 -81.5t-111 -52.5t-134 -18.5q-68 0 -141 18t-151 56q-22 9 -41 18q-17 8 -34.5 16t-28.5 14q-94 -29 -220 -43.5t-272 -14.5h-147v189h147q65 0 134.5 2t123.5 9q-72 63 -105 138.5t-33 172.5
q0 76 28 140.5t77.5 111.5t117 73.5t147.5 26.5q60 0 110 -17t91 -45.5t71.5 -66t51.5 -78t31.5 -82t10.5 -77.5q0 -103 -38.5 -185.5t-113.5 -145.5q42 -17 89.5 -28t94.5 -11q30 0 59.5 4t56 16t48.5 32.5t38 53.5q20 41 10 90.5t-42 105.5t-81 116.5t-108 123.5t-123 126
t-125 125z" />
    <glyph glyph-name="uniFBAD" unicode="&#x6be;" horiz-adv-x="1264" arabic-form="medial" 
d="M403 223q33 5 65.5 13t63.5 17q99 30 153 65.5t79 68.5t29 60.5t4 42.5q0 92 -43 133.5t-137 41.5q-36 0 -71.5 -15t-64.5 -62t-50 -134t-28 -231zM617 853q86 0 154.5 -24.5t116 -71.5t72.5 -114.5t25 -152.5q0 -51 -16 -108.5t-60 -113.5t-122 -106.5t-202 -87.5
q-88 -29 -179 -42q13 -65 47.5 -124.5t83.5 -110t108.5 -89.5t123.5 -63q-24 27 -36.5 64t-16.5 77.5t1 81.5t17 74q22 56 58 101.5t83 78t102.5 50t115.5 17.5h184v-189h-184q-63 0 -111 -33.5t-70 -90.5q-26 -68 -2 -139t91 -130l-62 -166q-97 0 -185 22.5t-164 62
t-138.5 93.5t-110.5 117t-79 132.5t-43 140.5q-64 -5 -122.5 -7t-109.5 -2v189q42 0 100.5 2t124.5 7q5 128 20 223t42 170q30 81 71 132t87.5 80t94.5 39.5t90 10.5z" />
    <glyph glyph-name="uniFBAF" unicode="&#x6d2;" horiz-adv-x="1314" arabic-form="final" 
d="M1288 -364v-188h-799q-84 0 -156 26.5t-125 76t-83 120t-30 157.5q0 76 32.5 142t87.5 115t126 76.5t148 27.5h840v-189h-832q-43 0 -83.5 -13.5t-72 -38t-50.5 -58.5t-19 -74t19 -73t49.5 -57t69.5 -37t79 -13h799z" />
    <glyph glyph-name="uniFBB1" unicode="&#x6d3;" horiz-adv-x="1316" arabic-form="final" 
d="M1288 -364v-188h-799q-84 0 -156 26.5t-125 76t-83 120t-30 157.5q0 76 32.5 142t87.5 115t126 76.5t148 27.5h840v-189h-832q-43 0 -83.5 -13.5t-72 -38t-50.5 -58.5t-19 -74t19 -73t49.5 -57t69.5 -37t79 -13h799zM185 294l9 127l124 37q-54 43 -74 104q-13 39 -7.5 79
t25 74.5t51 60t69.5 36.5q27 9 54 9.5t52.5 -3t48.5 -11t43 -14.5l-25 -101q-17 4 -36 8t-38 6.5t-36 2t-28 -4.5q-17 -6 -31.5 -16.5t-24 -24t-12.5 -30.5t3 -37t22.5 -36.5t44.5 -25.5t67 -9t92 14l85 25l34 -108z" />
    <glyph glyph-name="uniFBE8" unicode="&#x649;" horiz-adv-x="688" arabic-form="initial" 
d="M523 814q2 -6 8 -32t13.5 -64.5t16.5 -85t16 -94t12 -91.5t5 -77q0 -96 -31.5 -165.5t-82 -115t-113.5 -67.5t-127 -22h-255v189h255q15 0 42.5 4.5t55 22.5t48 54t20.5 100q0 22 -3.5 55.5t-9 72t-12.5 79t-14 76.5t-13 64t-10 42z" />
    <glyph glyph-name="uniFBE9" unicode="&#x649;" horiz-adv-x="804" arabic-form="medial" 
d="M816 189v-189h-78q-91 0 -160.5 26t-111.5 78q-104 -104 -308 -104h-192v189h192q72 0 114 14.5t63.5 36t28 48t6.5 50.5v338h188v-331q0 -37 11 -63t28.5 -43.5t39 -27.5t41.5 -15t36 -6t24 -1h78z" />
    <glyph glyph-name="uniFBFD" unicode="&#x6cc;" horiz-adv-x="1778" arabic-form="final" 
d="M1515 0q42 -82 45.5 -155t-23.5 -134t-82 -110t-130 -82.5t-167 -52t-194 -18.5h-285q-158 0 -284 69t-206 191q-54 86 -77.5 190.5t-16.5 223t44.5 249.5t105.5 271l168 -82q-112 -236 -127.5 -427.5t65.5 -322.5q51 -83 136.5 -127t191.5 -44h285q56 0 110 8.5
t101 23.5t85 35.5t63.5 45.5t35.5 53.5t1 58.5q-12 39 -56 65.5t-106 42t-134 22t-139 6.5l7 189h862v-189h-279z" />
    <glyph glyph-name="uniFBFE" unicode="&#x6cc;" horiz-adv-x="873" arabic-form="initial" 
d="M675 814q2 -6 8 -32t13.5 -64.5t16.5 -85t16 -94t12 -91.5t5 -77q0 -96 -31.5 -165.5t-82 -115t-113.5 -67.5t-127 -22h-414v189h414q15 0 42.5 4.5t55 22.5t48 54t20.5 100q0 22 -3.5 55.5t-9 72t-12.5 79t-14 76.5t-13 64t-10 42zM749 -381l-162 -162l-156 162l158 160
zM366 -383l-162 -162l-156 162l158 160z" />
    <glyph glyph-name="uniFBFF" unicode="&#x6cc;" horiz-adv-x="1048" arabic-form="medial" 
d="M1062 189v-189h-165q-91 0 -160.5 26t-111.5 78q-104 -104 -308 -104h-330v189h330q72 0 114 14.5t63.5 36t28 48t6.5 50.5v338h188v-331q0 -37 11.5 -63t28.5 -43.5t38.5 -27.5t41.5 -15t36 -6t24 -1h165zM796 -387l-162 -162l-156 162l158 160zM413 -389l-162 -162
l-156 162l158 160z" />
    <glyph glyph-name="uniFC5E" unicode="&#xfc5e;" arabic-form="isolated" 
d="M-130 1691q-87 0 -136 48t-49 134v106h91v-106q0 -48 22 -70t72 -22q7 0 20.5 2.5t26.5 12t23 28t10 49.5v106h92v-106q0 -48 22 -70.5t73 -22.5q7 0 20 3.5t26 13t22 28t9 48.5q0 15 -3.5 36t-8.5 42t-9.5 39t-7.5 27l85 29q1 -5 7 -23.5t12 -44t11 -53.5t5 -52
q0 -47 -15 -81.5t-39.5 -57t-55 -33.5t-60.5 -11q-92 0 -140 53q-25 -27 -58 -39.5t-67 -12.5zM-271 2200q7 11 14.5 30t12 40.5t5 42.5t-6.5 35q-4 6 -13 14.5t-24 10.5q-13 0 -26.5 -3.5t-25.5 -9t-21.5 -11t-13.5 -8.5l-58 57q3 4 15 15t32 23t46.5 20.5t56.5 7.5
q35 -2 62.5 -19t43.5 -47q19 -34 19.5 -75.5t-7.5 -80.5q54 16 113 39.5t104 54.5q-13 5 -27 9.5t-39 16.5q-44 22 -67.5 51t-32.5 59.5t-5.5 58.5t13.5 47q15 31 41 56.5t57.5 41t65.5 17.5t66 -13q62 -30 85 -104q7 -25 10 -52.5t-1.5 -58.5t-17 -65t-35.5 -71
q-20 -33 -55 -60t-76 -48.5t-84 -38t-79.5 -27.5t-63 -17t-33.5 -7zM71 2601q-11 0 -25 -4.5t-27.5 -12.5t-25.5 -19t-19 -23l-1 -10t3 -25t16.5 -32t40.5 -30q15 -9 36.5 -17t47.5 -17q3 14 6.5 32t5.5 37.5t1 39t-6 37.5q-11 27 -35 41l-8 2t-10 1z" />
    <glyph glyph-name="uniFC5F" unicode="&#xfc5f;" arabic-form="isolated" 
d="M1 1753q-87 0 -136 48t-49 134v106h91v-106q0 -48 22 -70t72 -22q7 0 20.5 2.5t26.5 12t23 28t10 49.5v106h92v-106q0 -48 22 -70.5t73 -22.5q7 0 20 3.5t26 13t22 28t9 48.5q0 15 -3.5 36t-8.5 42t-9.5 39t-7.5 27l85 29q1 -5 7 -23.5t12 -44t11 -53.5t5 -52
q0 -47 -15 -81.5t-39.5 -57t-55 -33.5t-60.5 -11q-92 0 -140 53q-25 -27 -58 -39.5t-67 -12.5zM-117 1266l480 178v-110l-480 -181v113zM-117 1497l480 179v-111l-480 -180v112z" />
    <glyph glyph-name="uniFC60" unicode="&#xfc60;" arabic-form="isolated" 
d="M-130 1691q-87 0 -136 48t-49 134v106h91v-106q0 -48 22 -70t72 -22q7 0 20.5 2.5t26.5 12t23 28t10 49.5v106h92v-106q0 -48 22 -70.5t73 -22.5q7 0 20 3.5t26 13t22 28t9 48.5q0 15 -3.5 36t-8.5 42t-9.5 39t-7.5 27l85 29q1 -5 7 -23.5t12 -44t11 -53.5t5 -52
q0 -47 -15 -81.5t-39.5 -57t-55 -33.5t-60.5 -11q-92 0 -140 53q-25 -27 -58 -39.5t-67 -12.5zM-332 2214l480 178v-111l-480 -180v113z" />
    <glyph glyph-name="uniFC61" unicode="&#xfc61;" arabic-form="isolated" 
d="M-130 1691q-87 0 -136 48t-49 134v106h91v-106q0 -48 22 -70t72 -22q7 0 20.5 2.5t26.5 12t23 28t10 49.5v106h92v-106q0 -48 22 -70.5t73 -22.5q7 0 20 3.5t26 13t22 28t9 48.5q0 15 -3.5 36t-8.5 42t-9.5 39t-7.5 27l85 29q1 -5 7 -23.5t12 -44t11 -53.5t5 -52
q0 -47 -15 -81.5t-39.5 -57t-55 -33.5t-60.5 -11q-92 0 -140 53q-25 -27 -58 -39.5t-67 -12.5zM-292 2172q24 7 61.5 18t79.5 27.5t83.5 38t73.5 50.5q-22 11 -37.5 18t-31.5 15q-45 22 -69 50.5t-33.5 58.5t-6.5 58.5t12 48.5q15 31 42 57t59 41.5t67.5 18t67.5 -13.5
q65 -32 86 -104q7 -27 11 -56t-1 -62.5t-21 -72.5t-48 -84q-23 -33 -57 -59.5t-72.5 -48t-78 -37.5t-72.5 -27.5t-57 -18t-32 -8.5zM16 2578q-12 0 -26.5 -4t-28.5 -11.5t-25.5 -18t-18.5 -23.5q-1 0 -2.5 -9.5t3 -24t18 -31.5t42.5 -32q15 -8 33.5 -16.5t52.5 -24.5
q15 29 18 71.5t-7 77.5q-8 19 -23 32.5t-36 13.5z" />
    <glyph glyph-name="uniFC62" unicode="&#xfc62;" arabic-form="isolated" 
d="M-16 1714q-87 0 -136 48t-49 134v106h91v-106q0 -48 22 -70t72 -22q7 0 20.5 2.5t26.5 12t23 28t10 49.5v106h92v-106q0 -48 22 -70.5t73 -22.5q7 0 20 3.5t26 13t22 28t9 48.5q0 15 -3.5 36t-8.5 42t-9.5 39t-7.5 27l85 29q1 -5 7 -23.5t12 -44t11 -53.5t5 -52
q0 -47 -15 -81.5t-39.5 -57t-55 -33.5t-60.5 -11q-92 0 -140 53q-25 -27 -58 -39.5t-67 -12.5zM-127 1454l480 179v-111l-480 -180v112z" />
    <glyph glyph-name="uniFC63" unicode="&#xfc63;" arabic-form="isolated" 
d="M-130 1691q-87 0 -136 48t-49 134v106h91v-106q0 -48 22 -70t72 -22q7 0 20.5 2.5t26.5 12t23 28t10 49.5v106h92v-106q0 -48 22 -70.5t73 -22.5q7 0 20 3.5t26 13t22 28t9 48.5q0 15 -3.5 36t-8.5 42t-9.5 39t-7.5 27l85 29q1 -5 7 -23.5t12 -44t11 -53.5t5 -52
q0 -47 -15 -81.5t-39.5 -57t-55 -33.5t-60.5 -11q-92 0 -140 53q-25 -27 -58 -39.5t-67 -12.5zM-59 2580h116v-397h-116v397z" />
    <glyph glyph-name="uniFE70" unicode="&#xfe70;" arabic-form="isolated" 
d="M-240 1702l480 178v-111l-480 -180v113zM-240 1933l480 178v-110l-480 -180v112z" />
    <glyph glyph-name="uniFE72" unicode="&#xfe72;" arabic-form="isolated" 
d="M-271 1661q7 11 14.5 30t12 40.5t5 42.5t-6.5 35q-4 6 -13 14.5t-24 10.5q-13 0 -26.5 -3.5t-25.5 -9t-21.5 -11t-13.5 -8.5l-58 57q3 4 15 15t32 23t46.5 20.5t56.5 7.5q35 -2 62.5 -19t43.5 -47q19 -34 19.5 -75.5t-7.5 -80.5q54 16 113 39.5t104 54.5q-13 5 -27 9.5
t-39 16.5q-44 22 -67.5 51t-32.5 59.5t-5.5 58.5t13.5 47q15 31 41 56.5t57.5 41t65.5 17.5t66 -13q62 -30 85 -104q7 -25 10 -52.5t-1.5 -58.5t-17 -65t-35.5 -71q-20 -33 -55 -60t-76 -48.5t-84 -38t-79.5 -27.5t-63 -17t-33.5 -7zM71 2062q-11 0 -25 -4.5t-27.5 -12.5
t-25.5 -19t-19 -23l-1 -10t3 -25t16.5 -32t40.5 -30q15 -9 36.5 -17t47.5 -17q3 14 6.5 32t5.5 37.5t1 39t-6 37.5q-11 27 -35 41l-8 2t-10 1z" />
    <glyph glyph-name="uniFE74" unicode="&#xfe74;" arabic-form="isolated" 
d="M-240 -680l480 178v-110l-480 -181v113zM-240 -449l480 179v-111l-480 -180v112z" />
    <glyph glyph-name="uniFE76" unicode="&#xfe76;" arabic-form="isolated" 
d="M-240 1702l480 178v-111l-480 -180v113z" />
    <glyph glyph-name="uniFE78" unicode="&#xfe78;" arabic-form="isolated" 
d="M-292 1625q24 7 61.5 18t79.5 27.5t83.5 38t73.5 50.5q-22 11 -37.5 18t-31.5 15q-45 22 -69 50.5t-33.5 58.5t-6.5 58.5t12 48.5q15 31 42 57t59 41.5t67.5 18t67.5 -13.5q65 -32 86 -104q7 -27 11 -56t-1 -62.5t-21 -72.5t-48 -84q-23 -33 -57 -59.5t-72.5 -48
t-78 -37.5t-72.5 -27.5t-57 -18t-32 -8.5zM16 2031q-12 0 -26.5 -4t-28.5 -11.5t-25.5 -18t-18.5 -23.5q-1 0 -2.5 -9.5t3 -24t18 -31.5t42.5 -32q15 -8 33.5 -16.5t52.5 -24.5q15 29 18 71.5t-7 77.5q-8 19 -23 32.5t-36 13.5z" />
    <glyph glyph-name="uniFE7A" unicode="&#xfe7a;" arabic-form="isolated" 
d="M-240 -449l480 179v-111l-480 -180v112z" />
    <glyph glyph-name="uniFE7C" unicode="&#xfe7c;" arabic-form="isolated" 
d="M-130 1691q-87 0 -136 48t-49 134v106h91v-106q0 -48 22 -70t72 -22q7 0 20.5 2.5t26.5 12t23 28t10 49.5v106h92v-106q0 -48 22 -70.5t73 -22.5q7 0 20 3.5t26 13t22 28t9 48.5q0 15 -3.5 36t-8.5 42t-9.5 39t-7.5 27l85 29q1 -5 7 -23.5t12 -44t11 -53.5t5 -52
q0 -47 -15 -81.5t-39.5 -57t-55 -33.5t-60.5 -11q-92 0 -140 53q-25 -27 -58 -39.5t-67 -12.5z" />
    <glyph glyph-name="uniFE7E" unicode="&#xfe7e;" arabic-form="isolated" 
d="M-2 1671q-51 0 -92 15t-70.5 42.5t-45 67.5t-15.5 90q0 51 16 90.5t45 67.5t70 42.5t92 14.5q102 0 166 -59q63 -59 63 -154q0 -100 -63 -158q-64 -59 -166 -59zM-2 1774q49 0 81 29t32 83t-32 83.5t-81 29.5q-51 0 -82 -29.5t-31 -83.5q0 -112 113 -112z" />
    <glyph glyph-name="uniFE82" unicode="&#x622;" horiz-adv-x="647" arabic-form="final" 
d="M666 0q-95 1 -163.5 14.5t-116 39t-76 64t-44.5 90t-21 115.5t-5 142v809h189v-809q0 -87 5.5 -141t29 -83.5t71 -40t131.5 -11.5v-189zM706 1437h-483q-63 0 -106 -5t-72.5 -20t-48 -43t-32.5 -74l-158 47q46 161 167 221q51 26 113 33.5t137 7.5h483v-167z" />
    <glyph glyph-name="uniFE84" unicode="&#x623;" horiz-adv-x="647" arabic-form="final" 
d="M666 0q-95 1 -163.5 14.5t-116 39t-76 64t-44.5 90t-21 115.5t-5 142v809h189v-809q0 -87 5.5 -141t29 -83.5t71 -40t131.5 -11.5v-189zM7 1375l9 127l124 37q-54 43 -74 104q-13 39 -7.5 79t25 74.5t51 60t69.5 36.5q27 9 54 9.5t52.5 -3t48.5 -11t43 -14.5l-25 -101
q-17 4 -36 8t-38 6.5t-36 2t-28 -4.5q-17 -6 -31.5 -16.5t-24 -24t-12.5 -30.5t3 -37t22.5 -36.5t44.5 -25.5t67 -9t92 14l85 25l34 -108z" />
    <glyph glyph-name="uniFE86" unicode="&#x624;" horiz-adv-x="1036" arabic-form="final" 
d="M194 -363q151 0 254 23t163 71q52 42 76.5 107t24.5 162h-184q-70 0 -142 21t-130.5 69t-95.5 125.5t-37 189.5q0 66 11.5 119.5t29 95.5t38.5 73t41 53q55 55 126 85t152 30q71 0 133 -22t111 -66q135 -126 135 -395v-189h150v-189h-150q0 -142 -41.5 -244.5
t-128.5 -171.5q-88 -69 -218.5 -102.5t-317.5 -33.5v189zM521 672q-99 0 -154 -70t-55 -197q0 -129 78 -179q19 -12 39 -19.5t39 -11t34.5 -5t25.5 -1.5h184v189q0 73 -11 123.5t-28 83.5t-38.5 50.5t-42.5 25.5t-40 9.5t-31 1.5zM182 1014l9 127l124 37q-54 43 -74 104
q-13 39 -7.5 79t25 74.5t51 60t69.5 36.5q27 9 54 9.5t52.5 -3t48.5 -11t43 -14.5l-25 -101q-17 4 -36 8t-38 6.5t-36 2t-28 -4.5q-17 -6 -31.5 -16.5t-24 -24t-12.5 -30.5t3 -37t22.5 -36.5t44.5 -25.5t67 -9t92 14l85 25l34 -108z" />
    <glyph glyph-name="uniFE88" unicode="&#x625;" horiz-adv-x="647" arabic-form="final" 
d="M652 0q-95 1 -163.5 14.5t-116 39t-76 64t-44.5 90t-21 115.5t-5 142v962h189v-962q0 -87 5.5 -141t29 -83.5t71 -40t131.5 -11.5v-189zM82 -675l9 127l124 37q-54 43 -74 104q-13 39 -7.5 79t25 74.5t51 60t69.5 36.5q27 9 54 9.5t52.5 -3t48.5 -11t43 -14.5l-25 -101
q-17 4 -36 8t-38 6.5t-36 2t-28 -4.5q-17 -6 -31.5 -16.5t-24 -24t-12.5 -30.5t3 -37t22.5 -36.5t44.5 -25.5t67 -9t92 14l85 25l34 -108z" />
    <glyph glyph-name="uniFE8A" unicode="&#x626;" horiz-adv-x="1778" arabic-form="final" 
d="M1515 0q42 -82 45.5 -155t-23.5 -134t-82 -110t-130 -82.5t-167 -52t-194 -18.5h-285q-158 0 -284 69t-206 191q-54 86 -77.5 190.5t-16.5 223t44.5 249.5t105.5 271l168 -82q-112 -236 -127.5 -427.5t65.5 -322.5q51 -83 136.5 -127t191.5 -44h285q56 0 110 8.5
t101 23.5t85 35.5t63.5 45.5t35.5 53.5t1 58.5q-12 39 -56 65.5t-106 42t-134 22t-139 6.5l7 189h862v-189h-279zM689 319l9 127l124 37q-54 43 -74 104q-13 39 -7.5 79t25 74.5t51 60t69.5 36.5q27 9 54 9.5t52.5 -3t48.5 -11t43 -14.5l-25 -101q-17 4 -36 8t-38 6.5t-36 2
t-28 -4.5q-17 -6 -31.5 -16.5t-24 -24t-12.5 -30.5t3 -37t22.5 -36.5t44.5 -25.5t67 -9t92 14l85 25l34 -108z" />
    <glyph glyph-name="uniFE8B" unicode="&#x626;" horiz-adv-x="857" arabic-form="initial" 
d="M675 814q2 -6 8 -32t13.5 -64.5t16.5 -85t16 -94t12 -91.5t5 -77q0 -96 -31.5 -165.5t-82 -115t-113.5 -67.5t-127 -22h-414v189h414q15 0 42.5 4.5t55 22.5t48 54t20.5 100q0 22 -3.5 55.5t-9 72t-12.5 79t-14 76.5t-13 64t-10 42zM131 861l9 127l124 37q-54 43 -74 104
q-13 39 -7.5 79t25 74.5t51 60t69.5 36.5q27 9 54 9.5t52.5 -3t48.5 -11t43 -14.5l-25 -101q-17 4 -36 8t-38 6.5t-36 2t-28 -4.5q-17 -6 -31.5 -16.5t-24 -24t-12.5 -30.5t3 -37t22.5 -36.5t44.5 -25.5t67 -9t92 14l85 25l34 -108z" />
    <glyph glyph-name="uniFE8C" unicode="&#x626;" horiz-adv-x="1054" arabic-form="medial" 
d="M1062 189v-189h-165q-91 0 -160.5 26t-111.5 78q-104 -104 -308 -104h-330v189h330q72 0 114 14.5t63.5 36t28 48t6.5 50.5v338h188v-331q0 -37 11.5 -63t28.5 -43.5t38.5 -27.5t41.5 -15t36 -6t24 -1h165zM194 804l9 127l124 37q-54 43 -74 104q-13 39 -7.5 79t25 74.5
t51 60t69.5 36.5q27 9 54 9.5t52.5 -3t48.5 -11t43 -14.5l-25 -101q-17 4 -36 8t-38 6.5t-36 2t-28 -4.5q-17 -6 -31.5 -16.5t-24 -24t-12.5 -30.5t3 -37t22.5 -36.5t44.5 -25.5t67 -9t92 14l85 25l34 -108z" />
    <glyph glyph-name="uniFE8E" unicode="&#x627;" horiz-adv-x="644" arabic-form="final" 
d="M652 0q-95 1 -163.5 14.5t-116 39t-76 64t-44.5 90t-21 115.5t-5 142v962h189v-962q0 -87 5.5 -141t29 -83.5t71 -40t131.5 -11.5v-189z" />
    <glyph glyph-name="uniFE90" unicode="&#x628;" horiz-adv-x="2248" arabic-form="final" 
d="M2255 188v-188h-46q-79 0 -153 30t-128 89q-46 -46 -116 -71q-52 -19 -121 -29t-158.5 -14.5t-202.5 -5.5t-253 -1q-102 0 -194 0.5t-173 4.5t-151 12.5t-130 24.5q-143 39 -215 123q-82 92 -82 244q0 51 7.5 102.5t16.5 94t16.5 70t8.5 29.5l180 -55l-6.5 -23t-14 -58
t-14 -77.5t-6.5 -82.5t8.5 -69.5t27 -51t48.5 -37t74 -27.5q102 -27 253 -31.5t346 -4.5q162 0 281.5 1t203.5 7.5t137.5 19.5t83.5 37t41 61t11 90v274h189v-311q0 -46 16.5 -79.5t42.5 -55t59.5 -32t66.5 -10.5h46zM909 -362l170 172l174 -174l-172 -172z" />
    <glyph glyph-name="uniFE91" unicode="&#x628;" horiz-adv-x="701" arabic-form="initial" 
d="M523 814q2 -6 8 -32t13.5 -64.5t16.5 -85t16 -94t12 -91.5t5 -77q0 -96 -31.5 -165.5t-82 -115t-113.5 -67.5t-127 -22h-255v189h255q15 0 42.5 4.5t55 22.5t48 54t20.5 100q0 22 -3.5 55.5t-9 72t-12.5 79t-14 76.5t-13 64t-10 42zM172 -363l170 172l174 -174l-172 -172
z" />
    <glyph glyph-name="uniFE92" unicode="&#x628;" horiz-adv-x="812" arabic-form="medial" 
d="M828 189v-189h-78q-91 0 -160.5 26t-111.5 78q-104 -104 -308 -104h-192v189h192q72 0 114 14.5t63.5 36t28 48t6.5 50.5v338h188v-331q0 -37 11 -63t28.5 -43.5t39 -27.5t41.5 -15t36 -6t24 -1h78zM205 -374l170 172l174 -174l-172 -172z" />
    <glyph glyph-name="uniFE94" unicode="&#x629;" horiz-adv-x="1268" arabic-form="final" 
d="M1275 0h-25q-160 0 -279.5 68.5t-183.5 191.5q-32 -44 -76.5 -76.5t-100.5 -57.5q-32 -13 -74 -21t-89 -8t-96.5 11t-96.5 37q-72 38 -115.5 100.5t-57.5 147.5q-19 104 12.5 201.5t109.5 178.5q137 140 387 214l-19 108l184 39q24 -100 42 -177.5t32 -139.5
q3 -12 9.5 -40t15.5 -64.5t19 -78.5t20 -82t19 -75t16 -58q20 -75 59 -120.5t85 -70t93.5 -32t84.5 -7.5h25v-189zM640 805q-99 -29 -175 -69t-125.5 -88.5t-70.5 -104.5t-10 -117q7 -42 30 -70.5t54 -45.5q22 -13 48 -18.5t52 -6t50.5 3.5t43.5 12q126 52 147 189
q7 50 2.5 89.5t-7.5 53.5zM840 1304l-158 160l156 162l162 -162zM457 1306l-158 160l156 162l162 -162z" />
    <glyph glyph-name="uniFE96" unicode="&#x62a;" horiz-adv-x="2243" arabic-form="final" 
d="M2255 188v-188h-46q-79 0 -153 30t-128 89q-46 -46 -116 -71q-52 -19 -121 -29t-158.5 -14.5t-202.5 -5.5t-253 -1q-102 0 -194 0.5t-173 4.5t-151 12.5t-130 24.5q-143 39 -215 123q-82 92 -82 244q0 51 7.5 102.5t16.5 94t16.5 70t8.5 29.5l180 -55l-6.5 -23t-14 -58
t-14 -77.5t-6.5 -82.5t8.5 -69.5t27 -51t48.5 -37t74 -27.5q102 -27 253 -31.5t346 -4.5q162 0 281.5 1t203.5 7.5t137.5 19.5t83.5 37t41 61t11 90v274h189v-311q0 -46 16.5 -79.5t42.5 -55t59.5 -32t66.5 -10.5h46zM1257 766l-158 160l156 162l162 -162zM874 768l-158 160
l156 162l162 -162z" />
    <glyph glyph-name="uniFE97" unicode="&#x62a;" horiz-adv-x="888" arabic-form="initial" 
d="M675 814q2 -6 8 -32t13.5 -64.5t16.5 -85t16 -94t12 -91.5t5 -77q0 -96 -31.5 -165.5t-82 -115t-113.5 -67.5t-127 -22h-414v189h414q15 0 42.5 4.5t55 22.5t48 54t20.5 100q0 22 -3.5 55.5t-9 72t-12.5 79t-14 76.5t-13 64t-10 42zM627 1026l-158 160l156 162l162 -162z
M244 1028l-158 160l156 162l162 -162z" />
    <glyph glyph-name="uniFE98" unicode="&#x62a;" horiz-adv-x="1049" arabic-form="medial" 
d="M706 949l-158 160l156 162l162 -162zM323 951l-158 160l156 162l162 -162zM1062 189v-189h-165q-91 0 -160.5 26t-111.5 78q-104 -104 -308 -104h-330v189h330q72 0 114 14.5t63.5 36t28 48t6.5 50.5v338h188v-331q0 -37 11.5 -63t28.5 -43.5t38.5 -27.5t41.5 -15t36 -6
t24 -1h165z" />
    <glyph glyph-name="uniFE9A" unicode="&#x62b;" horiz-adv-x="2243" arabic-form="final" 
d="M2255 188v-188h-46q-79 0 -153 30t-128 89q-46 -46 -116 -71q-52 -19 -121 -29t-158.5 -14.5t-202.5 -5.5t-253 -1q-102 0 -194 0.5t-173 4.5t-151 12.5t-130 24.5q-143 39 -215 123q-82 92 -82 244q0 51 7.5 102.5t16.5 94t16.5 70t8.5 29.5l180 -55l-6.5 -23t-14 -58
t-14 -77.5t-6.5 -82.5t8.5 -69.5t27 -51t48.5 -37t74 -27.5q102 -27 253 -31.5t346 -4.5q162 0 281.5 1t203.5 7.5t137.5 19.5t83.5 37t41 61t11 90v274h189v-311q0 -46 16.5 -79.5t42.5 -55t59.5 -32t66.5 -10.5h46zM1225 1170l-142 -139l-140 139l144 143zM1274 718
l-158 160l156 162l162 -162zM891 720l-158 160l156 162l162 -162z" />
    <glyph glyph-name="uniFE9B" unicode="&#x62b;" horiz-adv-x="878" arabic-form="initial" 
d="M675 814q2 -6 8 -32t13.5 -64.5t16.5 -85t16 -94t12 -91.5t5 -77q0 -96 -31.5 -165.5t-82 -115t-113.5 -67.5t-127 -22h-414v189h414q15 0 42.5 4.5t55 22.5t48 54t20.5 100q0 22 -3.5 55.5t-9 72t-12.5 79t-14 76.5t-13 64t-10 42zM569 1446l-142 -139l-140 139l144 143
zM618 994l-158 160l156 162l162 -162zM235 996l-158 160l156 162l162 -162z" />
    <glyph glyph-name="uniFE9C" unicode="&#x62b;" horiz-adv-x="1049" arabic-form="medial" 
d="M1062 189v-189h-165q-91 0 -160.5 26t-111.5 78q-104 -104 -308 -104h-330v189h330q72 0 114 14.5t63.5 36t28 48t6.5 50.5v338h188v-331q0 -37 11.5 -63t28.5 -43.5t38.5 -27.5t41.5 -15t36 -6t24 -1h165zM628 1384l-142 -139l-140 139l144 143zM677 932l-158 160
l156 162l162 -162zM294 934l-158 160l156 162l162 -162z" />
    <glyph glyph-name="uniFE9E" unicode="&#x62c;" horiz-adv-x="1583" arabic-form="final" 
d="M1342 397q-3 -1 -40.5 -16t-128.5 -49q12 -37 32 -64t43 -44.5t48 -26t47 -8.5h253v-189h-253q-74 0 -132 18.5t-101 52.5t-72 83t-44 110l-262 -97q-108 -40 -185 -74t-128 -64.5t-79.5 -60t-41.5 -60t-14 -65.5t5 -76q13 -105 54 -171t104.5 -102.5t148.5 -50
t186 -13.5h459v-189h-459q-46 0 -97.5 2.5t-105 11t-107.5 24.5t-105 43q-226 122 -265 420q-16 121 11.5 209.5t101.5 159.5q70 67 182.5 120.5t269.5 111.5l427 152q-97 39 -195.5 73.5t-181 61t-142 42.5t-78.5 19q-17 0 -35.5 -3t-36.5 -18t-35 -46.5t-32 -88.5l-183 48
q77 296 324 296q7 0 16.5 -0.5t29 -5t50.5 -14t81 -26.5t121 -43.5t170 -65.5l368 -150zM680 -198l170 172l174 -174l-172 -172z" />
    <glyph glyph-name="uniFE9F" unicode="&#x62c;" horiz-adv-x="1439" arabic-form="initial" 
d="M1288 400q-6 -4 -52 -35t-122.5 -75.5t-178.5 -95.5t-219.5 -94t-245.5 -71.5t-256 -28.5h-224v189h224q112 0 226.5 26.5t220.5 66t199 86t163 87.5q-97 39 -193.5 76t-176.5 65.5t-137.5 46.5t-76.5 21q-17 0 -35.5 -3t-36.5 -18t-35 -46.5t-32 -88.5l-183 48
q77 296 324 296q6 0 16 -0.5t29 -5t51 -14t81.5 -26.5t120.5 -43.5t170 -65.5l354 -131zM503 -358l170 172l174 -174l-172 -172z" />
    <glyph glyph-name="uniFEA0" unicode="&#x62c;" horiz-adv-x="1532" arabic-form="medial" 
d="M1335 400q-6 -4 -50 -34t-117 -73q11 -37 35.5 -57.5t51.5 -31t51 -13t34 -2.5h210v-189h-210q-73 0 -136.5 21.5t-114.5 63.5q-58 49 -88 118q-77 -38 -165 -74.5t-182.5 -65t-194 -46t-198.5 -17.5h-281v189h281q112 0 226.5 26.5t220.5 66t199 86t163 87.5
q-97 39 -193.5 76t-176.5 65.5t-137.5 46.5t-76.5 21q-17 0 -35.5 -3t-36.5 -18t-35 -46.5t-32 -88.5l-183 48q77 296 324 296q7 0 16.5 -0.5t29 -5t50.5 -14t81 -26.5t121 -43.5t170 -65.5l354 -131zM520 -358l170 172l174 -174l-172 -172z" />
    <glyph glyph-name="uniFEA2" unicode="&#x62d;" horiz-adv-x="1575" arabic-form="final" 
d="M1342 397q-3 -1 -40.5 -16t-128.5 -49q12 -37 32 -64t43 -44.5t48 -26t47 -8.5h253v-189h-253q-74 0 -132 18.5t-101 52.5t-72 83t-44 110l-262 -97q-108 -40 -185 -74t-128 -64.5t-79.5 -60t-41.5 -60t-14 -65.5t5 -76q13 -105 54 -171t104.5 -102.5t148.5 -50
t186 -13.5h459v-189h-459q-46 0 -97.5 2.5t-105 11t-107.5 24.5t-105 43q-226 122 -265 420q-16 121 11.5 209.5t101.5 159.5q70 67 182.5 120.5t269.5 111.5l427 152q-97 39 -195.5 73.5t-181 61t-142 42.5t-78.5 19q-17 0 -35.5 -3t-36.5 -18t-35 -46.5t-32 -88.5l-183 48
q77 296 324 296q7 0 16.5 -0.5t29 -5t50.5 -14t81 -26.5t121 -43.5t170 -65.5l368 -150z" />
    <glyph glyph-name="uniFEA3" unicode="&#x62d;" horiz-adv-x="1368" arabic-form="initial" 
d="M1288 400q-6 -4 -52 -35t-122.5 -75.5t-178.5 -95.5t-219.5 -94t-245.5 -71.5t-256 -28.5h-224v189h224q112 0 226.5 26.5t220.5 66t199 86t163 87.5q-97 39 -193.5 76t-176.5 65.5t-137.5 46.5t-76.5 21q-17 0 -35.5 -3t-36.5 -18t-35 -46.5t-32 -88.5l-183 48
q77 296 324 296q6 0 16 -0.5t29 -5t51 -14t81.5 -26.5t120.5 -43.5t170 -65.5l354 -131z" />
    <glyph glyph-name="uniFEA4" unicode="&#x62d;" horiz-adv-x="1528" arabic-form="medial" 
d="M1335 400q-6 -4 -50 -34t-117 -73q11 -37 35.5 -57.5t51.5 -31t51 -13t34 -2.5h210v-189h-210q-73 0 -136.5 21.5t-114.5 63.5q-58 49 -88 118q-77 -38 -165 -74.5t-182.5 -65t-194 -46t-198.5 -17.5h-281v189h281q112 0 226.5 26.5t220.5 66t199 86t163 87.5
q-97 39 -193.5 76t-176.5 65.5t-137.5 46.5t-76.5 21q-17 0 -35.5 -3t-36.5 -18t-35 -46.5t-32 -88.5l-183 48q77 296 324 296q7 0 16.5 -0.5t29 -5t50.5 -14t81 -26.5t121 -43.5t170 -65.5l354 -131z" />
    <glyph glyph-name="uniFEA6" unicode="&#x62e;" horiz-adv-x="1576" arabic-form="final" 
d="M1342 397q-3 -1 -40.5 -16t-128.5 -49q12 -37 32 -64t43 -44.5t48 -26t47 -8.5h253v-189h-253q-74 0 -132 18.5t-101 52.5t-72 83t-44 110l-262 -97q-108 -40 -185 -74t-128 -64.5t-79.5 -60t-41.5 -60t-14 -65.5t5 -76q13 -105 54 -171t104.5 -102.5t148.5 -50
t186 -13.5h459v-189h-459q-46 0 -97.5 2.5t-105 11t-107.5 24.5t-105 43q-226 122 -265 420q-16 121 11.5 209.5t101.5 159.5q70 67 182.5 120.5t269.5 111.5l427 152q-97 39 -195.5 73.5t-181 61t-142 42.5t-78.5 19q-17 0 -35.5 -3t-36.5 -18t-35 -46.5t-32 -88.5l-183 48
q77 296 324 296q7 0 16.5 -0.5t29 -5t50.5 -14t81 -26.5t121 -43.5t170 -65.5l368 -150zM343 1259l170 172l174 -174l-172 -172z" />
    <glyph glyph-name="uniFEA7" unicode="&#x62e;" horiz-adv-x="1404" arabic-form="initial" 
d="M1288 400q-6 -4 -52 -35t-122.5 -75.5t-178.5 -95.5t-219.5 -94t-245.5 -71.5t-256 -28.5h-224v189h224q112 0 226.5 26.5t220.5 66t199 86t163 87.5q-97 39 -193.5 76t-176.5 65.5t-137.5 46.5t-76.5 21q-17 0 -35.5 -3t-36.5 -18t-35 -46.5t-32 -88.5l-183 48
q77 296 324 296q6 0 16 -0.5t29 -5t51 -14t81.5 -26.5t120.5 -43.5t170 -65.5l354 -131zM266 1261l170 172l174 -174l-172 -172z" />
    <glyph glyph-name="uniFEA8" unicode="&#x62e;" horiz-adv-x="1527" arabic-form="medial" 
d="M1335 400q-6 -4 -50 -34t-117 -73q11 -37 35.5 -57.5t51.5 -31t51 -13t34 -2.5h210v-189h-210q-73 0 -136.5 21.5t-114.5 63.5q-58 49 -88 118q-77 -38 -165 -74.5t-182.5 -65t-194 -46t-198.5 -17.5h-281v189h281q112 0 226.5 26.5t220.5 66t199 86t163 87.5
q-97 39 -193.5 76t-176.5 65.5t-137.5 46.5t-76.5 21q-17 0 -35.5 -3t-36.5 -18t-35 -46.5t-32 -88.5l-183 48q77 296 324 296q7 0 16.5 -0.5t29 -5t50.5 -14t81 -26.5t121 -43.5t170 -65.5l354 -131zM271 1261l170 172l174 -174l-172 -172z" />
    <glyph glyph-name="uniFEAA" unicode="&#x62f;" horiz-adv-x="1244" arabic-form="final" 
d="M1265 189v-189h-37q-149 0 -275 124q-75 -101 -263 -128q-35 -5 -74 -8t-81 -3q-51 0 -103 4.5t-101.5 14t-95.5 25t-83 36.5l-82 48l94 165l83 -48q35 -20 85.5 -32.5t107.5 -18t115 -4t108 8.5q58 9 95.5 25.5t47.5 37.5q14 16 4.5 48t-33.5 69l-375 571l159 104
l388 -592q30 -43 60.5 -88.5t64.5 -83t71.5 -62t82.5 -24.5h37z" />
    <glyph glyph-name="uniFEAC" unicode="&#x630;" horiz-adv-x="1236" arabic-form="final" 
d="M1265 189v-189h-37q-149 0 -275 124q-75 -101 -263 -128q-35 -5 -74 -8t-81 -3q-51 0 -103 4.5t-101.5 14t-95.5 25t-83 36.5l-82 48l94 165l83 -48q35 -20 85.5 -32.5t107.5 -18t115 -4t108 8.5q58 9 95.5 25.5t47.5 37.5q14 16 4.5 48t-33.5 69l-375 571l159 104
l388 -592q30 -43 60.5 -88.5t64.5 -83t71.5 -62t82.5 -24.5h37zM378 1418l170 172l174 -174l-172 -172z" />
    <glyph glyph-name="uniFEAE" unicode="&#x631;" horiz-adv-x="828" arabic-form="final" 
d="M857 0h-43q-96 0 -177 38q0 -140 -39 -250t-114 -186.5t-184.5 -116.5t-251.5 -40h-138v189h138q103 0 178.5 24.5t125 75.5t73 130t23.5 188v624h189v-331q0 -56 23.5 -87.5t54.5 -46.5t59.5 -18.5t39.5 -3.5h43v-189z" />
    <glyph glyph-name="uniFEB0" unicode="&#x632;" horiz-adv-x="844" arabic-form="final" 
d="M857 0h-43q-96 0 -177 38q0 -140 -39 -250t-114 -186.5t-184.5 -116.5t-251.5 -40h-138v189h138q103 0 178.5 24.5t125 75.5t73 130t23.5 188v624h189v-331q0 -56 23.5 -87.5t54.5 -46.5t59.5 -18.5t39.5 -3.5h43v-189zM369 1081l170 172l174 -174l-172 -172z" />
    <glyph glyph-name="uniFEB2" unicode="&#x633;" horiz-adv-x="2919" arabic-form="final" 
d="M2862 0q-99 0 -174.5 29t-125.5 84l-24 -23q-50 -42 -115 -66t-133 -24q-98 0 -172 29t-124 84l-24 -23q-50 -42 -115 -66t-133 -24q-125 0 -216 56v-84q0 -262 -140 -393t-419 -131h-235q-155 0 -281 67t-204 191q-54 85 -77.5 189t-16.5 223t44 250t103 270l170 -83
q-56 -116 -88.5 -223t-40.5 -202.5t8 -177t57 -145.5q52 -81 136 -125.5t190 -44.5h235q115 0 187.5 24t113 68t55 105.5t14.5 137.5v703h189v-194q0 -96 18.5 -153.5t49 -88.5t69 -41t79.5 -10q25 0 57 9t60 30.5t47.5 57.5t19.5 90v300h188v-310q2 -91 48.5 -134
t149.5 -43q25 0 56.5 9t59.5 30.5t47 57.5t19 90v300h188v-310q2 -91 49.5 -133.5t150.5 -42.5h69v-189h-69v0z" />
    <glyph glyph-name="uniFEB3" unicode="&#x633;" horiz-adv-x="1778" arabic-form="initial" 
d="M760 2q-94 0 -167 27.5t-123 79.5q-52 -56 -121 -82.5t-139 -26.5h-220v189h220q15 0 43 4.5t55 23t47.5 55.5t20.5 101v4v299h189v-299q0 -97 45.5 -142t149.5 -45q15 0 42.5 5.5t55 24.5t48 56t20.5 101v299h188v-299q0 -97 47 -143t151 -46q16 0 43 6.5t53.5 26.5
t45.5 57t19 99q0 22 -3.5 55t-9 71t-12.5 77.5t-14 74t-13 62t-10 40.5l179 57q2 -6 8 -31.5t14 -63t16.5 -83.5t16 -92.5t12.5 -90t5 -76.5q0 -95 -31 -165.5t-80.5 -117t-112.5 -70t-126 -24.5q-96 0 -169.5 28.5t-124.5 82.5q-52 -55 -120.5 -82t-137.5 -27z" />
    <glyph glyph-name="uniFEB4" unicode="&#x633;" horiz-adv-x="1776" arabic-form="medial" 
d="M1730 0q-96 0 -170 27.5t-124 82.5h-1l-15 -16q-49 -47 -111 -70.5t-133 -23.5q-187 0 -290 108q-50 -53 -115 -79.5t-132 -28.5h-13q-177 3 -276 104q-6 -8 -14 -14q-101 -90 -285 -90h-68v189h68q64 0 103.5 12t61.5 35.5t29.5 57t7.5 76.5v305h189v-300q0 -97 47 -141
t147 -45q18 1 44.5 7t51 25t42.5 54.5t18 94.5v305h188v-300q0 -97 46.5 -141.5t149.5 -44.5q29 0 58 9t52 30t38 54.5t17 82.5v310h189v-310q2 -92 51 -134t149 -42h61v-189h-61v0z" />
    <glyph glyph-name="uniFEB6" unicode="&#x634;" horiz-adv-x="2920" arabic-form="final" 
d="M2862 0q-99 0 -174.5 29t-125.5 84l-24 -23q-50 -42 -115 -66t-133 -24q-98 0 -172 29t-124 84l-24 -23q-50 -42 -115 -66t-133 -24q-125 0 -216 56v-84q0 -262 -140 -393t-419 -131h-235q-155 0 -281 67t-204 191q-54 85 -77.5 189t-16.5 223t44 250t103 270l170 -83
q-56 -116 -88.5 -223t-40.5 -202.5t8 -177t57 -145.5q52 -81 136 -125.5t190 -44.5h235q115 0 187.5 24t113 68t55 105.5t14.5 137.5v703h189v-194q0 -96 18.5 -153.5t49 -88.5t69 -41t79.5 -10q25 0 57 9t60 30.5t47.5 57.5t19.5 90v300h188v-310q2 -91 48.5 -134
t149.5 -43q25 0 56.5 9t59.5 30.5t47 57.5t19 90v300h188v-310q2 -91 49.5 -133.5t150.5 -42.5h69v-189h-69v0zM2138 1365l-142 -139l-140 139l144 143zM2187 913l-158 160l156 162l162 -162zM1804 915l-158 160l156 162l162 -162z" />
    <glyph glyph-name="uniFEB7" unicode="&#x634;" horiz-adv-x="1767" arabic-form="initial" 
d="M760 2q-94 0 -167 27.5t-123 79.5q-52 -56 -121 -82.5t-139 -26.5h-220v189h220q15 0 43 4.5t55 23t47.5 55.5t20.5 101v4v299h189v-299q0 -97 45.5 -142t149.5 -45q15 0 42.5 5.5t55 24.5t48 56t20.5 101v299h188v-299q0 -97 47 -143t151 -46q16 0 43 6.5t53.5 26.5
t45.5 57t19 99q0 22 -3.5 55t-9 71t-12.5 77.5t-14 74t-13 62t-10 40.5l179 57q2 -6 8 -31.5t14 -63t16.5 -83.5t16 -92.5t12.5 -90t5 -76.5q0 -95 -31 -165.5t-80.5 -117t-112.5 -70t-126 -24.5q-96 0 -169.5 28.5t-124.5 82.5q-52 -55 -120.5 -82t-137.5 -27zM1171 1401
l-142 -139l-140 139l144 143zM1220 949l-158 160l156 162l162 -162zM837 951l-158 160l156 162l162 -162z" />
    <glyph glyph-name="uniFEB8" unicode="&#x634;" horiz-adv-x="1784" arabic-form="medial" 
d="M1730 0q-96 0 -170 27.5t-124 82.5h-1l-15 -16q-49 -47 -111 -70.5t-133 -23.5q-187 0 -290 108q-50 -53 -115 -79.5t-132 -28.5h-13q-177 3 -276 104q-6 -8 -14 -14q-101 -90 -285 -90h-68v189h68q64 0 103.5 12t61.5 35.5t29.5 57t7.5 76.5v305h189v-300q0 -97 47 -141
t147 -45q18 1 44.5 7t51 25t42.5 54.5t18 94.5v305h188v-300q0 -97 46.5 -141.5t149.5 -44.5q29 0 58 9t52 30t38 54.5t17 82.5v310h189v-310q2 -92 51 -134t149 -42h61v-189h-61v0zM1029 1365l-142 -139l-140 139l144 143zM1078 913l-158 160l156 162l162 -162zM695 915
l-158 160l156 162l162 -162z" />
    <glyph glyph-name="uniFEBA" unicode="&#x635;" horiz-adv-x="2812" arabic-form="final" 
d="M720 -550q-156 0 -282.5 67.5t-204.5 192.5q-54 85 -77.5 188.5t-16.5 221.5t43.5 247.5t102.5 267.5l171 -81q-112 -232 -128 -423.5t66 -321.5q50 -81 135 -125.5t191 -44.5h235q115 0 186.5 24.5t112 68.5t55 106.5t14.5 138.5v357v342h188v-334q0 -54 23 -85t53 -46
q12 19 23.5 39t25.5 40q38 63 80.5 130t89 130t98 119.5t109.5 98.5t122.5 66.5t137.5 24.5t143.5 -27t126 -83.5t89.5 -142.5t34 -204q0 -66 -13.5 -118.5t-36.5 -94.5h208v-189h-1133q-48 0 -94 10t-86 29v-62q0 -527 -556 -527h-235zM2274 189q96 5 149.5 58t53.5 155
q0 127 -53.5 197.5t-150.5 70.5q-46 0 -90.5 -21t-86.5 -56.5t-82 -83t-78 -101t-73 -110t-68 -109.5h479z" />
    <glyph glyph-name="uniFEBB" unicode="&#x635;" horiz-adv-x="1796" arabic-form="initial" 
d="M-11 0v189h163q70 0 112 14t64 35.5t29 47.5t7 51v338h188v-330q0 -56 23.5 -87t53.5 -46q12 19 23.5 38.5t23.5 39.5q39 64 81.5 130.5t89.5 130t98.5 119.5t109.5 97.5t123 66t138 24.5t143.5 -26.5t125.5 -82t88.5 -141.5t33.5 -205q0 -111 -36.5 -188t-94.5 -125
t-130 -69t-142 -21h-572q-72 0 -136 21.5t-113 61.5q-12 9 -23 20q-52 -51 -126.5 -76t-174.5 -27h-170zM1304 189q49 0 89 13.5t68.5 40.5t44 67t15.5 93q0 128 -55 197.5t-150 69.5q-70 0 -135.5 -45t-126 -115t-115.5 -155t-104 -166h469z" />
    <glyph glyph-name="uniFEBC" unicode="&#x635;" horiz-adv-x="1852" arabic-form="medial" 
d="M-11 0v189h163q70 0 112 14t64 35.5t29 47.5t7 51v339h188v-331q0 -56 23.5 -87t53.5 -46q12 19 23.5 38.5t23.5 39.5q39 64 81.5 130.5t89.5 130t98.5 119.5t109.5 97.5t123 66t138 24.5t143.5 -26.5t125.5 -82t88.5 -141.5t33.5 -205q0 -66 -13.5 -119t-36.5 -95h206
v-189h-1131q-72 0 -136 21.5t-113 61.5q-12 9 -23 20q-52 -51 -126.5 -76t-174.5 -27h-170zM1315 189q23 1 58.5 8t68.5 28q38 26 58.5 69.5t20.5 108.5q0 128 -55 197.5t-150 69.5q-47 0 -91 -20.5t-86.5 -55.5t-82.5 -82t-77.5 -100t-73 -109.5t-68.5 -109.5l-2 -4h480z
" />
    <glyph glyph-name="uniFEBE" unicode="&#x636;" horiz-adv-x="2816" arabic-form="final" 
d="M720 -550q-156 0 -282.5 67.5t-204.5 192.5q-54 85 -77.5 188.5t-16.5 221.5t43.5 247.5t102.5 267.5l171 -81q-112 -232 -128 -423.5t66 -321.5q50 -81 135 -125.5t191 -44.5h235q115 0 186.5 24.5t112 68.5t55 106.5t14.5 138.5v357v342h188v-334q0 -54 23 -85t53 -46
q12 19 23.5 39t25.5 40q38 63 80.5 130t89 130t98 119.5t109.5 98.5t122.5 66.5t137.5 24.5t143.5 -27t126 -83.5t89.5 -142.5t34 -204q0 -66 -13.5 -118.5t-36.5 -94.5h208v-189h-1133q-48 0 -94 10t-86 29v-62q0 -527 -556 -527h-235zM2274 189q96 5 149.5 58t53.5 155
q0 127 -53.5 197.5t-150.5 70.5q-46 0 -90.5 -21t-86.5 -56.5t-82 -83t-78 -101t-73 -110t-68 -109.5h479zM2110 1243l170 172l174 -174l-172 -172z" />
    <glyph glyph-name="uniFEBF" unicode="&#x636;" horiz-adv-x="1807" arabic-form="initial" 
d="M-11 0v189h163q70 0 112 14t64 35.5t29 47.5t7 51v338h188v-330q0 -56 23.5 -87t53.5 -46q12 19 23.5 38.5t23.5 39.5q39 64 81.5 130.5t89.5 130t98.5 119.5t109.5 97.5t123 66t138 24.5t143.5 -26.5t125.5 -82t88.5 -141.5t33.5 -205q0 -111 -36.5 -188t-94.5 -125
t-130 -69t-142 -21h-572q-72 0 -136 21.5t-113 61.5q-12 9 -23 20q-52 -51 -126.5 -76t-174.5 -27h-170zM1304 189q49 0 89 13.5t68.5 40.5t44 67t15.5 93q0 128 -55 197.5t-150 69.5q-70 0 -135.5 -45t-126 -115t-115.5 -155t-104 -166h469zM1125 1238l170 172l174 -174
l-172 -172z" />
    <glyph glyph-name="uniFEC0" unicode="&#x636;" horiz-adv-x="1854" arabic-form="medial" 
d="M-11 0v189h163q70 0 112 14t64 35.5t29 47.5t7 51v339h188v-331q0 -56 23.5 -87t53.5 -46q12 19 23.5 38.5t23.5 39.5q39 64 81.5 130.5t89.5 130t98.5 119.5t109.5 97.5t123 66t138 24.5t143.5 -26.5t125.5 -82t88.5 -141.5t33.5 -205q0 -66 -13.5 -119t-36.5 -95h206
v-189h-1131q-72 0 -136 21.5t-113 61.5q-12 9 -23 20q-52 -51 -126.5 -76t-174.5 -27h-170zM1315 189q23 1 58.5 8t68.5 28q38 26 58.5 69.5t20.5 108.5q0 128 -55 197.5t-150 69.5q-47 0 -91 -20.5t-86.5 -55.5t-82.5 -82t-77.5 -100t-73 -109.5t-68.5 -109.5l-2 -4h480z
M1142 1243l170 172l174 -174l-172 -172z" />
    <glyph glyph-name="uniFEC2" unicode="&#x637;" horiz-adv-x="1598" arabic-form="final" 
d="M1604 0h-1491v189h224q25 38 49 80t50 81v1077h188v-807q43 51 89.5 95t98 76t108 50.5t118.5 18.5q73 0 144 -27t126.5 -82.5t89.5 -141.5t34 -204q0 -67 -13.5 -120t-37.5 -96h223v-189zM1027 189q46 0 85.5 13t68.5 39.5t45.5 67t16.5 96.5q0 127 -54 197t-151 70
q-46 0 -90 -20.5t-86.5 -56t-82.5 -82.5t-77.5 -100.5t-72.5 -110t-67 -109.5q-2 -2 -2 -4h467z" />
    <glyph glyph-name="uniFEC3" unicode="&#x637;" horiz-adv-x="1413" arabic-form="initial" 
d="M-37 0v189h224q25 38 49 80t50 81v1077h188v-807q43 51 89.5 95.5t98 76.5t108 50.5t118.5 18.5q73 0 144 -27t126.5 -83t89.5 -142t34 -204q0 -75 -17 -134t-46.5 -104t-69 -76.5t-84.5 -52t-93.5 -29.5t-94.5 -9h-914zM877 189q9 0 24.5 1t34.5 5t39.5 11t39.5 19
q40 26 59 70t19 110q0 127 -54 197.5t-151 70.5q-46 0 -90 -20.5t-86.5 -56t-82.5 -83t-77.5 -101t-72.5 -110t-67 -109.5q-2 -2 -2 -4h467z" />
    <glyph glyph-name="uniFEC4" unicode="&#x637;" horiz-adv-x="1451" arabic-form="medial" 
d="M1489 0h-1501v189h224q25 38 49 80t50 81v1077h188v-807q43 51 89.5 95.5t98 76.5t108 50.5t118.5 18.5q73 0 144 -27t126.5 -83t89.5 -142t34 -204q0 -67 -13.5 -120t-37.5 -96h233v-189zM902 189q46 0 85.5 13t68.5 39.5t45.5 67t16.5 96.5q0 127 -54 197.5t-151 70.5
q-46 0 -90 -20.5t-86.5 -56t-82.5 -83t-77.5 -101t-72.5 -110t-67 -109.5q-2 -2 -2 -4h467z" />
    <glyph glyph-name="uniFEC6" unicode="&#x638;" horiz-adv-x="1588" arabic-form="final" 
d="M1604 0h-1491v189h224q25 38 49 80t50 81v1077h188v-807q43 51 89.5 95t98 76t108 50.5t118.5 18.5q73 0 144 -27t126.5 -82.5t89.5 -141.5t34 -204q0 -67 -13.5 -120t-37.5 -96h223v-189zM1027 189q46 0 85.5 13t68.5 39.5t45.5 67t16.5 96.5q0 127 -54 197t-151 70
q-46 0 -90 -20.5t-86.5 -56t-82.5 -82.5t-77.5 -100.5t-72.5 -110t-67 -109.5q-2 -2 -2 -4h467zM889 1284l170 172l174 -174l-172 -172z" />
    <glyph glyph-name="uniFEC7" unicode="&#x638;" horiz-adv-x="1395" arabic-form="initial" 
d="M-37 0v189h224q25 38 49 80t50 81v1077h188v-807q43 51 89.5 95.5t98 76.5t108 50.5t118.5 18.5q73 0 144 -27t126.5 -83t89.5 -142t34 -204q0 -75 -17 -134t-46.5 -104t-69 -76.5t-84.5 -52t-93.5 -29.5t-94.5 -9h-914zM877 189q9 0 24.5 1t34.5 5t39.5 11t39.5 19
q40 26 59 70t19 110q0 127 -54 197.5t-151 70.5q-46 0 -90 -20.5t-86.5 -56t-82.5 -83t-77.5 -101t-72.5 -110t-67 -109.5q-2 -2 -2 -4h467zM747 1282l170 172l174 -174l-172 -172z" />
    <glyph glyph-name="uniFEC8" unicode="&#x638;" horiz-adv-x="1460" arabic-form="medial" 
d="M1489 0h-1501v189h224q25 38 49 80t50 81v1077h188v-807q43 51 89.5 95.5t98 76.5t108 50.5t118.5 18.5q73 0 144 -27t126.5 -83t89.5 -142t34 -204q0 -67 -13.5 -120t-37.5 -96h233v-189zM902 189q46 0 85.5 13t68.5 39.5t45.5 67t16.5 96.5q0 127 -54 197.5t-151 70.5
q-46 0 -90 -20.5t-86.5 -56t-82.5 -83t-77.5 -101t-72.5 -110t-67 -109.5q-2 -2 -2 -4h467zM768 1283l170 172l174 -174l-172 -172z" />
    <glyph glyph-name="uniFECA" unicode="&#x639;" horiz-adv-x="1364" arabic-form="final" 
d="M1182 -761h-464q-43 0 -94.5 4t-106.5 15t-110.5 31t-107.5 53q-111 68 -167 175.5t-56 248.5q0 95 45 181.5t137 170.5q62 55 135.5 104t151.5 96q-50 49 -94.5 95t-79 82.5t-55 59t-22.5 25.5l-25 62q0 19 2 42t8 47t18 48t32 47q40 44 99.5 64.5t144.5 20.5h329
q83 0 148.5 -40t97.5 -109q31 -68 19.5 -139.5t-63.5 -134.5q-48 -57 -111.5 -106t-134.5 -94q37 -31 63 -50t43 -29.5t26.5 -14.5t12.5 -5h374v-189h-376q-20 0 -46 6.5t-62.5 26t-86.5 56t-118 95.5q-80 -47 -156 -95.5t-135 -100t-95.5 -107t-36.5 -115.5
q0 -74 22 -127.5t58 -91t83.5 -61t97.5 -36.5t100 -17.5t92 -4.5h464v-189zM460 677q15 -17 38.5 -42.5t52.5 -55.5t62 -64t68 -68l32 -28q75 45 139.5 92.5t106.5 98.5q33 36 19 73q-9 20 -29.5 30t-46.5 10h-329q-29 0 -48.5 -2.5t-31 -6.5t-17 -7.5t-7.5 -4.5
q-7 -11 -9 -25z" />
    <glyph glyph-name="uniFECB" unicode="&#x639;" horiz-adv-x="1182" arabic-form="initial" 
d="M-11 0v189h332q-37 38 -59.5 77t-34.5 75t-16 67.5t-4 55.5q0 82 33 154.5t88.5 125.5t129 84t154.5 31q47 0 90 -10.5t87 -30t92.5 -48t107.5 -63.5l-94 -162q-35 21 -71.5 43.5t-73 40.5t-72 29.5t-66.5 11.5q-39 0 -77.5 -14t-70 -40.5t-51 -65t-19.5 -86.5
q0 -54 21.5 -95.5t58.5 -72t86.5 -51t106 -33t116 -18t117.5 -5.5h126v-189h-1037z" />
    <glyph glyph-name="uniFECC" unicode="&#x639;" horiz-adv-x="1264" arabic-form="medial" 
d="M905 0q-17 0 -39 4.5t-52 17.5t-69 37t-91 63q-116 -63 -271 -92.5t-346 -29.5h-58v189h58q144 0 258 16.5t193 47.5q-52 44 -103.5 91t-94.5 88.5t-74.5 72t-42.5 42.5v40q0 19 2 41.5t8 46.5t18 48.5t32 47.5q76 85 242 85h331q83 0 150 -40.5t98 -111.5
q23 -46 22.5 -90.5t-17 -87t-45 -82t-62.5 -76t-69.5 -69.5t-65.5 -62q22 -15 38 -24.5t26.5 -14.5t16 -6.5t7.5 -2.5h366v-189h-366zM364 623q20 -19 56 -52.5t78.5 -72.5t86 -78t78.5 -68q54 43 103.5 91t99.5 111q11 14 18.5 32.5t-2.5 39.5q-8 15 -26 28t-50 13h-331
q-29 0 -47.5 -2.5t-30 -6.5t-17 -7.5t-7.5 -6.5q-3 -2 -5 -7.5t-4 -13.5z" />
    <glyph glyph-name="uniFECE" unicode="&#x63a;" horiz-adv-x="1368" arabic-form="final" 
d="M1182 -761h-464q-43 0 -94.5 4t-106.5 15t-110.5 31t-107.5 53q-111 68 -167 175.5t-56 248.5q0 95 45 181.5t137 170.5q62 55 135.5 104t151.5 96q-50 49 -94.5 95t-79 82.5t-55 59t-22.5 25.5l-25 62q0 19 2 42t8 47t18 48t32 47q40 44 99.5 64.5t144.5 20.5h329
q83 0 148.5 -40t97.5 -109q31 -68 19.5 -139.5t-63.5 -134.5q-48 -57 -111.5 -106t-134.5 -94q37 -31 63 -50t43 -29.5t26.5 -14.5t12.5 -5h374v-189h-376q-20 0 -46 6.5t-62.5 26t-86.5 56t-118 95.5q-80 -47 -156 -95.5t-135 -100t-95.5 -107t-36.5 -115.5
q0 -74 22 -127.5t58 -91t83.5 -61t97.5 -36.5t100 -17.5t92 -4.5h464v-189zM460 677q15 -17 38.5 -42.5t52.5 -55.5t62 -64t68 -68l32 -28q75 45 139.5 92.5t106.5 98.5q33 36 19 73q-9 20 -29.5 30t-46.5 10h-329q-29 0 -48.5 -2.5t-31 -6.5t-17 -7.5t-7.5 -4.5
q-7 -11 -9 -25zM544 1296l170 172l174 -174l-172 -172z" />
    <glyph glyph-name="uniFECF" unicode="&#x63a;" horiz-adv-x="1187" arabic-form="initial" 
d="M-11 0v189h332q-37 38 -59.5 77t-34.5 75t-16 67.5t-4 55.5q0 82 33 154.5t88.5 125.5t129 84t154.5 31q47 0 90 -10.5t87 -30t92.5 -48t107.5 -63.5l-94 -162q-35 21 -71.5 43.5t-73 40.5t-72 29.5t-66.5 11.5q-39 0 -77.5 -14t-70 -40.5t-51 -65t-19.5 -86.5
q0 -54 21.5 -95.5t58.5 -72t86.5 -51t106 -33t116 -18t117.5 -5.5h126v-189h-1037zM445 1264l170 172l174 -174l-172 -172z" />
    <glyph glyph-name="uniFED0" unicode="&#x63a;" horiz-adv-x="1262" arabic-form="medial" 
d="M905 0q-17 0 -39 4.5t-52 17.5t-69 37t-91 63q-116 -63 -271 -92.5t-346 -29.5h-58v189h58q144 0 258 16.5t193 47.5q-52 44 -103.5 91t-94.5 88.5t-74.5 72t-42.5 42.5v40q0 19 2 41.5t8 46.5t18 48.5t32 47.5q76 85 242 85h331q83 0 150 -40.5t98 -111.5
q23 -46 22.5 -90.5t-17 -87t-45 -82t-62.5 -76t-69.5 -69.5t-65.5 -62q22 -15 38 -24.5t26.5 -14.5t16 -6.5t7.5 -2.5h366v-189h-366zM364 623q20 -19 56 -52.5t78.5 -72.5t86 -78t78.5 -68q54 43 103.5 91t99.5 111q11 14 18.5 32.5t-2.5 39.5q-8 15 -26 28t-50 13h-331
q-29 0 -47.5 -2.5t-30 -6.5t-17 -7.5t-7.5 -6.5q-3 -2 -5 -7.5t-4 -13.5zM483 1272l170 172l174 -174l-172 -172z" />
    <glyph glyph-name="uniFED2" unicode="&#x641;" horiz-adv-x="2132" arabic-form="final" 
d="M1024 162q27 0 75 1.5t101 4.5t102.5 8t80.5 13q-33 30 -56.5 66t-38.5 75.5t-22 82t-7 84.5q0 73 30.5 140t84 117.5t125 80.5t153.5 30q86 0 154 -31.5t115 -83.5t72 -118t25 -135q0 -87 -27.5 -160t-82.5 -142q16 -1 37.5 -2t45 -2t46 -1.5t40.5 -0.5h73v-189h-73
q-130 0 -238.5 11.5t-196.5 36.5q-49 -18 -124.5 -32t-161 -23t-173 -14t-159.5 -5q-129 0 -247 3t-221.5 20.5t-191 56t-154.5 109.5q-43 45 -62.5 107t-19.5 137q0 51 7.5 102.5t16.5 94t16.5 70t8.5 29.5l180 -55l-6.5 -23t-14.5 -58t-14 -77.5t-6 -82.5q0 -60 30.5 -102
t82.5 -69t121 -42t147.5 -22t162 -8.5t164.5 -1.5zM1440 496q0 -50 14.5 -88.5t41 -68.5t64.5 -53t85 -40q45 17 81 39.5t61.5 52.5t39.5 69t14 90q0 34 -15.5 66.5t-42 57.5t-60.5 40t-71 15q-42 0 -80.5 -14t-68 -38t-46.5 -57t-17 -71zM1472 1267l170 172l174 -174
l-172 -172z" />
    <glyph glyph-name="uniFED3" unicode="&#x641;" horiz-adv-x="1023" arabic-form="initial" 
d="M-12 0v189h384q112 0 180.5 16t106.5 40t51.5 52.5t16.5 54.5h-152q-26 0 -58 2t-66.5 7.5t-69.5 16.5t-68 29q-27 16 -55 40t-50.5 59.5t-37 84t-14.5 113.5q0 81 28 153.5t80 124.5t119 79t143 27q87 0 160 -37t123 -106q54 -72 80 -178t26 -243v-138q0 -99 -39.5 -176
t-119.5 -125q-133 -85 -384 -85h-384zM526 899q-33 0 -67.5 -11.5t-62 -35t-45 -60.5t-17.5 -88q0 -33 7 -55.5t18 -37t23 -23.5t23 -15q29 -17 71 -24.5t99 -7.5h154q-2 99 -20.5 173t-50.5 121q-48 64 -132 64zM333 1488l170 172l174 -174l-172 -172z" />
    <glyph glyph-name="uniFED4" unicode="&#x641;" horiz-adv-x="1096" arabic-form="medial" 
d="M565 246q45 16 81 40t61.5 56t39.5 73t14 93q0 30 -15.5 60t-42 54t-60.5 39t-71 15q-42 0 -80.5 -13.5t-68 -36t-46.5 -53.5t-17 -65q-2 -50 12.5 -91t41.5 -73t65.5 -56.5t85.5 -41.5zM572 865q86 0 154 -30t115 -79.5t72 -114t25 -133.5q0 -97 -27.5 -175t-83.5 -138
q76 -6 164 -6h116v-189h-116q-256 0 -428 48q-88 -24 -202 -36t-260 -12h-119v189h119q109 0 195 6q-59 61 -88 139.5t-29 173.5q0 73 30.5 138t84 114t125 77t153.5 28zM394 1286l170 172l174 -174l-172 -172z" />
    <glyph glyph-name="uniFED6" unicode="&#x642;" horiz-adv-x="1655" arabic-form="final" 
d="M794 -554h-100q-77 0 -148 17.5t-133.5 50.5t-114 81.5t-89.5 110.5q-54 85 -78 188.5t-17.5 221.5t43.5 247.5t105 267.5l170 -81q-56 -116 -88.5 -222.5t-40.5 -201.5t8 -176t57 -145q50 -81 135 -125.5t191 -44.5h90v2q151 0 254 23t163 71q52 42 76.5 107t24.5 162
h-184q-70 0 -142 21t-130.5 69t-95.5 125.5t-37 189.5q0 66 11.5 119.5t29 95.5t38.5 73t41 53q55 55 126 85t152 30q71 0 133 -22t111 -66q135 -126 135 -395v-189h187v-189h-187q0 -142 -41.5 -244.5t-128.5 -171.5t-214.5 -102t-311.5 -34v-2zM1111 672q-99 0 -154 -70
t-55 -197q0 -129 78 -179q19 -12 39 -19.5t39 -11t34.5 -5t25.5 -1.5h184v189q0 73 -11 123.5t-28 83.5t-38.5 50.5t-42.5 25.5t-40 9.5t-31 1.5zM1276 1067l-158 160l156 162l162 -162zM893 1069l-158 160l156 162l162 -162z" />
    <glyph glyph-name="uniFED7" unicode="&#x642;" horiz-adv-x="1008" arabic-form="initial" 
d="M-12 0v189h384q112 0 180.5 16t106.5 40t51.5 52.5t16.5 54.5h-152q-26 0 -58 2t-66.5 7.5t-69.5 16.5t-68 29q-27 16 -55 40t-50.5 59.5t-37 84t-14.5 113.5q0 81 28 153.5t80 124.5t119 79t143 27q87 0 160 -37t123 -106q54 -72 80 -178t26 -243v-138q0 -99 -39.5 -176
t-119.5 -125q-133 -85 -384 -85h-384zM526 899q-33 0 -67.5 -11.5t-62 -35t-45 -60.5t-17.5 -88q0 -33 7 -55.5t18 -37t23 -23.5t23 -15q29 -17 71 -24.5t99 -7.5h154q-2 99 -20.5 173t-50.5 121q-48 64 -132 64zM693 1270l-158 160l156 162l162 -162zM310 1272l-158 160
l156 162l162 -162z" />
    <glyph glyph-name="uniFED8" unicode="&#x642;" horiz-adv-x="1096" arabic-form="medial" 
d="M565 246q45 16 81 40t61.5 56t39.5 73t14 93q0 30 -15.5 60t-42 54t-60.5 39t-71 15q-42 0 -80.5 -13.5t-68 -36t-46.5 -53.5t-17 -65q-2 -50 12.5 -91t41.5 -73t65.5 -56.5t85.5 -41.5zM572 865q86 0 154 -30t115 -79.5t72 -114t25 -133.5q0 -97 -27.5 -175t-83.5 -138
q76 -6 164 -6h116v-189h-116q-256 0 -428 48q-88 -24 -202 -36t-260 -12h-119v189h119q109 0 195 6q-59 61 -88 139.5t-29 173.5q0 73 30.5 138t84 114t125 77t153.5 28zM726 1104l-158 160l156 162l162 -162zM343 1106l-158 160l156 162l162 -162z" />
    <glyph glyph-name="uniFEDA" unicode="&#x643;" horiz-adv-x="2145" arabic-form="final" 
d="M920 487l-22 111q67 13 117 27.5t84.5 28t53 24.5t22.5 17q-6 2 -21.5 2.5t-32.5 0t-33.5 -1.5t-25.5 -2q-28 -2 -57.5 -2.5t-57 5.5t-50 20.5t-35.5 43.5q-59 135 212 296l57 -98q-53 -32 -89 -58.5t-57.5 -46.5t-30.5 -33.5t-9 -18.5q6 -2 20 -2t30.5 1.5t33 3.5
t26.5 2q26 2 52.5 2.5t51.5 -3.5q24 -4 41 -12t28.5 -18.5t18 -22.5t10.5 -23q14 -49 -11 -92q-58 -98 -326 -151zM1073 187q113 0 215 5.5t185 16.5t143 28.5t89 41.5q18 20 29 55.5t11 89.5v1004h189v-1014q1 -48 14 -89t36.5 -71t55.5 -47.5t72 -17.5h58v-189h-58
q-39 0 -79.5 9t-77.5 26.5t-68 43.5t-51 61q-43 -45 -117 -72.5t-172.5 -42.5t-218.5 -20.5t-255 -5.5q-102 0 -194 0.5t-173 4.5t-151 12.5t-130 24.5q-143 39 -215 123q-82 92 -82 244q0 51 7.5 102.5t16.5 94t16.5 70t8.5 29.5l180 -55l-6.5 -23t-14 -58t-14 -77.5
t-6.5 -82.5t8.5 -69.5t27 -51t48.5 -37t74 -27.5q102 -27 253 -31.5t346 -4.5z" />
    <glyph glyph-name="uniFEDB" unicode="&#x643;" horiz-adv-x="1160" arabic-form="initial" 
d="M-23 0v189h586q72 0 119.5 16.5t61.5 45.5q13 29 0.5 71.5t-43.5 94t-76 108.5t-97 114t-107 111.5t-106 101t-93 82t-69 54.5l19 213l915 402l76 -172l-801 -350q30 -30 77 -75.5t102 -101t112 -118t108 -125.5t90.5 -123.5t58.5 -111.5q17 -44 23.5 -82t5.5 -69.5
t-7.5 -56.5t-14.5 -43q-11 -25 -34 -55.5t-64.5 -57t-103.5 -44.5t-152 -18h-586z" />
    <glyph glyph-name="uniFEDC" unicode="&#x643;" horiz-adv-x="1248" arabic-form="medial" 
d="M1268 0h-15q-89 0 -158.5 17t-126.5 48.5t-105 76t-94 99.5q-2 -5 -4 -9t-4 -9q-28 -55 -78.5 -99t-119.5 -73q-59 -26 -131 -38.5t-150 -12.5h-294v189h294q58 0 108.5 8.5t91 24t69 37.5t42.5 49q24 49 4.5 119t-82.5 155q-89 125 -151 212t-101 142q-46 64 -75 105
l37 140l918 424l78 -173l-819 -375l397 -551q61 -82 109 -141.5t97.5 -98.5t108 -58t139.5 -19h15v-189z" />
    <glyph glyph-name="uniFEDE" unicode="&#x644;" horiz-adv-x="1416" arabic-form="final" 
d="M583 -552q-134 0 -243.5 58.5t-177.5 164.5q-27 43 -52 113t-29.5 168.5t22 226.5t103.5 288l170 -81q-47 -96 -73.5 -184t-33 -166t6 -144.5t45.5 -119.5q42 -64 110.5 -99.5t151.5 -35.5h71q115 0 187 24t113 68t56 106.5t15 139.5v390v8v1054h186v-1063
q1 -40 14.5 -72t37.5 -55t56 -35.5t71 -12.5h33v-189h-33q-99 0 -179 44v-69q0 -527 -557 -527h-71z" />
    <glyph glyph-name="uniFEDF" unicode="&#x644;" horiz-adv-x="577" arabic-form="initial" 
d="M-18 189h34q92 0 143.5 13.5t79.5 41.5q20 19 29.5 53.5t9.5 91.5v1039h188v-1039q0 -34 -3 -70.5t-13 -73.5t-29 -72.5t-51 -66.5q-29 -27 -62.5 -46.5t-76.5 -33t-96 -20t-119 -6.5h-34v189z" />
    <glyph glyph-name="uniFEE0" unicode="&#x644;" horiz-adv-x="646" arabic-form="medial" 
d="M-21 189h16q105 0 162.5 19.5t83.5 49t30.5 64.5t4.5 67v1038h188v-1038q0 -35 6.5 -70.5t26 -64.5t54.5 -47t93 -18h16v-189h-16q-77 0 -145.5 28t-129.5 90q-115 -118 -374 -118h-16v189z" />
    <glyph glyph-name="uniFEE2" unicode="&#x645;" horiz-adv-x="1510" arabic-form="final" 
d="M1493 0q-85 0 -149.5 25t-116.5 73q-27 -34 -57 -54.5t-60 -32t-57.5 -15t-47.5 -3.5q-17 0 -44 5t-73 21t-116 46t-173 81q-69 34 -129.5 65.5t-98.5 52.5v-924h-188v1036l182 106q29 -16 60 -33q26 -14 56.5 -31t59.5 -31q15 90 34.5 162.5t48.5 130.5q97 195 306 195
q93 0 164.5 -37.5t120 -99.5t73.5 -144t25 -170q0 -17 -0.5 -32.5t-1.5 -29.5q0 -55 22.5 -89t52.5 -52.5t60.5 -25t46.5 -6.5h33v-189h-33zM708 308q85 -42 141.5 -66.5t90.5 -38t48.5 -17.5t16.5 -4q11 0 32.5 4t43 26.5t37.5 71.5t16 140q0 11 -2.5 35t-9.5 53t-20.5 60
t-36.5 56.5t-56 42t-79 16.5q-39 0 -71.5 -12.5t-59.5 -52.5t-49.5 -115t-41.5 -199z" />
    <glyph glyph-name="uniFEE3" unicode="&#x645;" horiz-adv-x="1148" arabic-form="initial" 
d="M705 141q7 0 19.5 1t27 8t29 21.5t26 41t19 68t7.5 101.5q0 11 -2 35t-9 53.5t-20.5 60.5t-36.5 57t-56 42.5t-80 16.5q-44 0 -74.5 -15.5t-51.5 -42.5t-35 -63.5t-26 -79t-24 -89t-28 -92.5q52 -26 96 -49t82 -39.5t71.5 -26t65.5 -9.5zM629 835q98 0 170.5 -37.5
t120.5 -100.5t71.5 -145t23.5 -170q0 -97 -16.5 -167t-43.5 -117.5t-60.5 -76.5t-68 -44t-66.5 -20t-55 -5q-49 0 -94 10t-92 28.5t-98.5 45.5t-113.5 61q-82 -97 -211 -97h-115v189h115q38 0 62.5 28t42.5 73t33 103t34.5 119t46.5 119t68.5 103t101 73t144.5 28z" />
    <glyph glyph-name="uniFEE4" unicode="&#x645;" horiz-adv-x="1179" arabic-form="medial" 
d="M1154 0q-72 0 -135 21t-114 60q-27 -42 -59.5 -67.5t-65 -39t-62.5 -18t-52 -4.5q-49 0 -94 10t-92 28.5t-98.5 45.5t-113.5 61q-82 -97 -211 -97h-68v189h68q38 0 62.5 28t42.5 73t33 103t34.5 119t46.5 119t68.5 103t101 73t144.5 28q98 0 170.5 -37.5t120.5 -100.5
t71.5 -145t23.5 -170q0 -66 23.5 -104.5t54 -58t60 -25t40.5 -5.5h35v-189h-35zM666 141q8 0 20 1t26.5 8t29 21.5t26 41t19 68t7.5 101.5q0 11 -2 35t-9 53.5t-20.5 60.5t-36.5 57t-56 42.5t-80 16.5q-44 0 -74.5 -15.5t-51.5 -42.5t-35 -63.5t-26 -79t-24 -89t-28 -92.5
q52 -26 96 -49t82 -39.5t71.5 -26t65.5 -9.5z" />
    <glyph glyph-name="uniFEE6" unicode="&#x646;" horiz-adv-x="1680" arabic-form="final" 
d="M682 -554q-155 0 -281 67.5t-204 192.5q-54 85 -77.5 188.5t-16.5 221.5t44 247.5t103 267.5l170 -81q-56 -116 -88.5 -222.5t-40.5 -201.5t8 -176t57 -145q52 -81 136 -125.5t190 -44.5h235q115 0 187.5 24.5t113 68.5t55 106.5t14.5 138.5v392v8v303h189v-311
q1 -40 14.5 -72.5t36.5 -55.5t55.5 -35.5t72.5 -12.5h39v-189h-39q-98 0 -179 43v-70q0 -264 -140 -395.5t-419 -131.5h-235zM689 751l170 172l174 -174l-172 -172z" />
    <glyph glyph-name="uniFEE7" unicode="&#x646;" horiz-adv-x="685" arabic-form="initial" 
d="M523 814q2 -6 8 -32t13.5 -64.5t16.5 -85t16 -94t12 -91.5t5 -77q0 -96 -31.5 -165.5t-82 -115t-113.5 -67.5t-127 -22h-255v189h255q15 0 42.5 4.5t55 22.5t48 54t20.5 100q0 22 -3.5 55.5t-9 72t-12.5 79t-14 76.5t-13 64t-10 42zM188 1227l170 172l174 -174l-172 -172
z" />
    <glyph glyph-name="uniFEE8" unicode="&#x646;" horiz-adv-x="804" arabic-form="medial" 
d="M816 189v-189h-78q-91 0 -160.5 26t-111.5 78q-104 -104 -308 -104h-192v189h192q72 0 114 14.5t63.5 36t28 48t6.5 50.5v338h188v-331q0 -37 11 -63t28.5 -43.5t39 -27.5t41.5 -15t36 -6t24 -1h78zM235 1137l170 172l174 -174l-172 -172z" />
    <glyph glyph-name="uniFEEA" unicode="&#x647;" horiz-adv-x="1250" arabic-form="final" 
d="M1275 0h-25q-160 0 -279.5 68.5t-183.5 191.5q-32 -44 -76.5 -76.5t-100.5 -57.5q-32 -13 -74 -21t-89 -8t-96.5 11t-96.5 37q-72 38 -115.5 100.5t-57.5 147.5q-19 104 12.5 201.5t109.5 178.5q137 140 387 214l-19 108l184 39q24 -100 42 -177.5t32 -139.5
q3 -12 9.5 -40t15.5 -64.5t19 -78.5t20 -82t19 -75t16 -58q20 -75 59 -120.5t85 -70t93.5 -32t84.5 -7.5h25v-189zM640 805q-99 -29 -175 -69t-125.5 -88.5t-70.5 -104.5t-10 -117q7 -42 30 -70.5t54 -45.5q22 -13 48 -18.5t52 -6t50.5 3.5t43.5 12q126 52 147 189
q7 50 2.5 89.5t-7.5 53.5z" />
    <glyph glyph-name="uniFEEB" unicode="&#x647;" horiz-adv-x="1492" arabic-form="initial" 
d="M625 258q37 16 68.5 40t55 54.5t36.5 66.5t13 78q0 50 -21 84.5t-50 56t-60.5 31t-53.5 9.5q-41 0 -75.5 -12.5t-60 -34.5t-40 -53t-14.5 -67q0 -43 11.5 -77.5t36 -64t62.5 -56.5t92 -55zM880 1052q110 -115 203 -215q40 -43 80 -86.5t74.5 -83t61 -72t39.5 -52.5
q27 -44 44.5 -85t24 -83t2.5 -86t-19 -95q-16 -58 -50.5 -105.5t-83.5 -81.5t-111 -52.5t-134 -18.5q-68 0 -141 18t-151 56q-22 9 -41 18q-17 8 -34.5 16t-28.5 14q-94 -29 -220 -43.5t-272 -14.5h-147v189h147q65 0 134.5 2t123.5 9q-72 63 -105 138.5t-33 172.5
q0 76 28 140.5t77.5 111.5t117 73.5t147.5 26.5q60 0 110 -17t91 -45.5t71.5 -66t51.5 -78t31.5 -82t10.5 -77.5q0 -103 -38.5 -185.5t-113.5 -145.5q42 -17 89.5 -28t94.5 -11q30 0 59.5 4t56 16t48.5 32.5t38 53.5q20 41 10 90.5t-42 105.5t-81 116.5t-108 123.5t-123 126
t-125 125z" />
    <glyph glyph-name="uniFEEC" unicode="&#x647;" horiz-adv-x="1260" arabic-form="medial" 
d="M403 223q33 5 65.5 13t63.5 17q99 30 153 65.5t79 68.5t29 60.5t4 42.5q0 92 -43 133.5t-137 41.5q-36 0 -71.5 -15t-64.5 -62t-50 -134t-28 -231zM617 853q86 0 154.5 -24.5t116 -71.5t72.5 -114.5t25 -152.5q0 -51 -16 -108.5t-60 -113.5t-122 -106.5t-202 -87.5
q-88 -29 -179 -42q13 -65 47.5 -124.5t83.5 -110t108.5 -89.5t123.5 -63q-24 27 -36.5 64t-16.5 77.5t1 81.5t17 74q22 56 58 101.5t83 78t102.5 50t115.5 17.5h184v-189h-184q-63 0 -111 -33.5t-70 -90.5q-26 -68 -2 -139t91 -130l-62 -166q-97 0 -185 22.5t-164 62
t-138.5 93.5t-110.5 117t-79 132.5t-43 140.5q-64 -5 -122.5 -7t-109.5 -2v189q42 0 100.5 2t124.5 7q5 128 20 223t42 170q30 81 71 132t87.5 80t94.5 39.5t90 10.5z" />
    <glyph glyph-name="uniFEEE" unicode="&#x648;" horiz-adv-x="1044" arabic-form="final" 
d="M194 -363q151 0 254 23t163 71q52 42 76.5 107t24.5 162h-184q-70 0 -142 21t-130.5 69t-95.5 125.5t-37 189.5q0 66 11.5 119.5t29 95.5t38.5 73t41 53q55 55 126 85t152 30q71 0 133 -22t111 -66q135 -126 135 -395v-189h150v-189h-150q0 -142 -41.5 -244.5
t-128.5 -171.5q-88 -69 -218.5 -102.5t-317.5 -33.5v189zM521 672q-99 0 -154 -70t-55 -197q0 -129 78 -179q19 -12 39 -19.5t39 -11t34.5 -5t25.5 -1.5h184v189q0 73 -11 123.5t-28 83.5t-38.5 50.5t-42.5 25.5t-40 9.5t-31 1.5z" />
    <glyph glyph-name="uniFEF0" unicode="&#x649;" horiz-adv-x="1781" arabic-form="final" 
d="M1515 0q42 -82 45.5 -155t-23.5 -134t-82 -110t-130 -82.5t-167 -52t-194 -18.5h-285q-158 0 -284 69t-206 191q-54 86 -77.5 190.5t-16.5 223t44.5 249.5t105.5 271l168 -82q-112 -236 -127.5 -427.5t65.5 -322.5q51 -83 136.5 -127t191.5 -44h285q56 0 110 8.5
t101 23.5t85 35.5t63.5 45.5t35.5 53.5t1 58.5q-12 39 -56 65.5t-106 42t-134 22t-139 6.5l7 189h862v-189h-279z" />
    <glyph glyph-name="uniFEF2" unicode="&#x64a;" horiz-adv-x="1778" arabic-form="final" 
d="M1515 0q42 -82 45.5 -155t-23.5 -134t-82 -110t-130 -82.5t-167 -52t-194 -18.5h-285q-158 0 -284 69t-206 191q-54 86 -77.5 190.5t-16.5 223t44.5 249.5t105.5 271l168 -82q-112 -236 -127.5 -427.5t65.5 -322.5q51 -83 136.5 -127t191.5 -44h285q56 0 110 8.5
t101 23.5t85 35.5t63.5 45.5t35.5 53.5t1 58.5q-12 39 -56 65.5t-106 42t-134 22t-139 6.5l7 189h862v-189h-279zM1206 -844l-162 -162l-156 162l158 160zM823 -846l-162 -162l-156 162l158 160z" />
    <glyph glyph-name="uniFEF3" unicode="&#x64a;" horiz-adv-x="867" arabic-form="initial" 
d="M675 814q2 -6 8 -32t13.5 -64.5t16.5 -85t16 -94t12 -91.5t5 -77q0 -96 -31.5 -165.5t-82 -115t-113.5 -67.5t-127 -22h-414v189h414q15 0 42.5 4.5t55 22.5t48 54t20.5 100q0 22 -3.5 55.5t-9 72t-12.5 79t-14 76.5t-13 64t-10 42zM760 -388l-162 -162l-156 162l158 160
zM377 -390l-162 -162l-156 162l158 160z" />
    <glyph glyph-name="uniFEF4" unicode="&#x64a;" horiz-adv-x="1049" arabic-form="medial" 
d="M1062 189v-189h-165q-91 0 -160.5 26t-111.5 78q-104 -104 -308 -104h-330v189h330q72 0 114 14.5t63.5 36t28 48t6.5 50.5v338h188v-331q0 -37 11.5 -63t28.5 -43.5t38.5 -27.5t41.5 -15t36 -6t24 -1h165zM808 -392l-162 -162l-156 162l158 160zM425 -394l-162 -162
l-156 162l158 160z" />
    <glyph glyph-name=".notdef" horiz-adv-x="1229" 
d="M102 -362v1806h1024v-1806h-1024zM217 -248h795v1577h-795v-1577z" />
    <glyph glyph-name=".null" unicode="&#xfeff;" 
 />
    <glyph glyph-name=".null" 
 />
    <glyph glyph-name="nonmarkingreturn" horiz-adv-x="602" 
 />
    <glyph glyph-name="space" unicode=" " horiz-adv-x="696" 
 />
    <glyph glyph-name="space" unicode="&#xa0;" horiz-adv-x="696" 
 />
    <glyph glyph-name="exclam" unicode="!" horiz-adv-x="566" 
d="M373 371h-180l-14 1122h209zM290 -158l-155 158l162 161l156 -161z" />
    <glyph glyph-name="quotedbl" unicode="&#x22;" horiz-adv-x="704" 
d="M298 1504l-33 -385h-119l1 531h151v-146zM588 1504l-33 -385h-119l1 531h151v-146z" />
    <glyph glyph-name="numbersign" unicode="#" horiz-adv-x="1355" 
d="M822 440h-284l-86 -440h-153l86 440h-257v148h285l74 380h-278v149h307l88 447h153l-88 -447h284l88 447h155l-88 -447h219v-149h-248l-75 -380h242v-148h-270l-85 -440h-155zM566 588h284l74 380h-284z" />
    <glyph glyph-name="dollar" unicode="$" horiz-adv-x="1235" 
d="M920 403q0 99 -69.5 166.5t-233.5 122.5q-229 70 -334 182t-105 285q0 176 102.5 289t282.5 134v236h160v-237q180 -24 280.5 -151t100.5 -347h-197q0 151 -72 240.5t-195 89.5q-128 0 -195.5 -66.5t-67.5 -184.5q0 -109 71.5 -174t235.5 -118.5t255.5 -117t135 -148.5
t43.5 -199q0 -182 -109 -292.5t-305 -130.5v-205h-159v205q-200 18 -313.5 142t-113.5 337h199q0 -149 78.5 -230t222.5 -81q140 0 221 68t81 185z" />
    <glyph glyph-name="percent" unicode="%" horiz-adv-x="1611" 
d="M113 1263q0 141 89.5 232.5t230.5 91.5q143 0 231.5 -92t88.5 -238v-76q0 -142 -89.5 -232t-228.5 -90q-140 0 -231 90t-91 239v75zM261 1181q0 -84 47.5 -138.5t126.5 -54.5q76 0 123 53t47 144v78q0 84 -46.5 139t-126 55t-125.5 -55t-46 -143v-78zM874 383
q0 141 90 232t230.5 91t231 -90.5t90.5 -239.5v-76q0 -141 -90 -232t-229.5 -91t-231 90t-91.5 239v77zM1023 300q0 -85 47 -139.5t127 -54.5q77 0 123 53.5t46 144.5v79q0 85 -46.5 139t-124.5 54q-77 0 -124.5 -53.5t-47.5 -143.5v-79zM480 118l-113 71l764 1223l113 -71z
" />
    <glyph glyph-name="ampersand" unicode="&#x26;" horiz-adv-x="1367" 
d="M108 420q0 113 63 207.5t240 220.5q-104 126 -139.5 203.5t-35.5 153.5q0 179 105.5 280t285.5 101q161 0 266.5 -94t105.5 -237q0 -95 -48 -175t-167 -168l-115 -85l348 -416q73 140 73 311h180q0 -274 -132 -455l223 -267h-238l-105 124q-79 -71 -186 -108t-218 -37
q-228 0 -367 121t-139 320zM614 141q158 0 289 120l-381 457l-35 -26q-180 -132 -180 -272q0 -127 82.5 -203t224.5 -76zM435 1212q0 -103 127 -258l127 89q73 52 99.5 98.5t26.5 113.5q0 72 -53.5 119.5t-135.5 47.5q-88 0 -139.5 -59.5t-51.5 -150.5z" />
    <glyph glyph-name="quotesingle" unicode="'" horiz-adv-x="383" 
d="M272 1531l-23 -396h-138l1 515h160v-119z" />
    <glyph glyph-name="parenleft" unicode="(" horiz-adv-x="752" 
d="M143 635q0 243 65 466.5t194 406t267 257.5l41 -131q-157 -120 -257.5 -367.5t-109.5 -553.5l-1 -91q0 -415 151 -720q91 -182 217 -285l-41 -122q-143 80 -273 267q-253 365 -253 873z" />
    <glyph glyph-name="parenright" unicode=")" horiz-adv-x="765" 
d="M609 624q0 -239 -63 -459t-192 -405.5t-271 -264.5l-42 122q165 126 265.5 393t102.5 593v34q0 226 -47 419.5t-131.5 347.5t-189.5 240l42 121q142 -78 270 -262t192 -405t64 -474z" />
    <glyph glyph-name="asterisk" unicode="*" horiz-adv-x="947" 
d="M354 1056l-324 97l49 162l325 -120l-10 369h165l-11 -375l319 118l49 -163l-329 -98l212 -291l-133 -101l-200 310l-193 -302l-134 97z" />
    <glyph glyph-name="plus" unicode="+" horiz-adv-x="1247" 
d="M720 839h436v-188h-436v-494h-200v494h-436v188h436v457h200v-457z" />
    <glyph glyph-name="comma" unicode="," horiz-adv-x="432" 
d="M144 -312l-113 78q101 141 105 290v179h195v-156q0 -108 -53 -216.5t-134 -174.5z" />
    <glyph glyph-name="hyphen" unicode="-" horiz-adv-x="607" 
d="M564 583h-524v163h524v-163z" />
    <glyph glyph-name="period" unicode="." horiz-adv-x="579" 
d="M155 104q0 52 30.5 86.5t91.5 34.5t93 -34.5t32 -86.5q0 -49 -32 -82.5t-93 -33.5t-91.5 33.5t-30.5 82.5z" />
    <glyph glyph-name="slash" unicode="/" horiz-adv-x="907" 
d="M190 -134h-171l653 1698h170z" />
    <glyph glyph-name="zero" unicode="0" horiz-adv-x="1083" 
d="M544 189q-78 0 -147 30t-120.5 82t-81.5 121.5t-30 148.5q0 78 30 147t81.5 120.5t120.5 81.5t147 30q79 0 148.5 -30t121.5 -81.5t82 -120.5t30 -147q0 -79 -30 -148.5t-82 -121.5t-121.5 -82t-148.5 -30zM544 762q-39 0 -74 -15t-60.5 -41t-40.5 -60.5t-15 -74.5
t15 -75t40.5 -61.5t60.5 -41.5t74 -15q40 0 75 15t61.5 41.5t42 61.5t15.5 75t-15.5 74.5t-42 60.5t-61.5 41t-75 15z" />
    <glyph glyph-name="one" unicode="1" horiz-adv-x="624" 
d="M256 1v72.5t2 77.5q2 116 2 259.5t-11.5 304.5t-40 334.5t-83.5 349.5l179 58q59 -187 89.5 -369.5t43 -351t12.5 -318t-2 -270.5q-2 -40 -2 -77v-70h-189z" />
    <glyph glyph-name="two" unicode="2" horiz-adv-x="1235" 
d="M979 1455q3 -8 13 -43t21 -84t19.5 -104.5t8.5 -104.5q0 -96 -31 -166t-81 -115.5t-113 -68t-127 -22.5q-81 0 -147 26t-120 66q13 -111 19.5 -214.5t9.5 -198t3 -177.5v-153q-2 -26 -2 -50v-47h-186v97q1 121 -1 270t-16 316t-45.5 348.5t-89.5 366.5l179 58l39 -131
q0 -1 9 -30.5t28 -72.5t48.5 -93t69 -93t90 -71.5t112.5 -28.5q14 0 41.5 5t55.5 23.5t48.5 55t20.5 100.5q0 33 -6.5 74t-15.5 80t-18.5 72.5t-15.5 51.5z" />
    <glyph glyph-name="three" unicode="3" horiz-adv-x="1459" 
d="M1275 1455q1 -4 10.5 -37.5t20.5 -83t20 -106.5t9 -107q0 -72 -14.5 -139t-47.5 -119t-87 -83t-134 -31q-31 0 -66 6.5t-70.5 23t-69.5 45.5t-63 74q-22 -35 -48 -60t-54 -42t-56.5 -28t-55.5 -17q-48 -11 -96 -4.5t-91 29.5q10 -100 14.5 -194t6.5 -179.5t2 -161v-139.5
v-101h-188v101q0 75 -0.5 172.5t-5.5 208t-14.5 229.5t-26.5 238t-43 233.5t-62 215.5l179 58q10 -34 19 -64t17.5 -61.5t17 -65.5t18.5 -76q11 -45 28.5 -92t43.5 -85t61 -60.5t81 -17.5q39 4 68.5 28t46.5 79t20.5 146t-9.5 230l186 18q12 -122 27.5 -215t39.5 -156
t58.5 -95.5t84.5 -32.5q32 0 52 13t30.5 37t13 58t0.5 76q-2 39 -8.5 81t-15 80.5t-16.5 70t-13 49.5z" />
    <glyph glyph-name="four" unicode="4" horiz-adv-x="1366" 
d="M1187 727q-60 -12 -151 -23.5t-199 -11.5q-57 0 -116 4.5t-116.5 16t-113 29.5t-105.5 45q10 -102 16 -198t8 -183.5t2 -165.5t-1 -143v-97h-188v97q1 95 0.5 207t-7 237.5t-21.5 261.5t-43 278q-14 81 -34 158.5t-47 158.5l182 58q22 -74 40 -152t43 -175
q13 -51 32 -84.5t44.5 -56t57 -37t68.5 -26.5q-19 38 -30 86.5t-11 108.5q0 85 33 152.5t86 115t120 73t135 25.5q51 0 95.5 -12.5t85.5 -32t81 -44.5t81 -49l-94 -163q-31 19 -63.5 39t-64.5 36t-63 26.5t-58 10.5q-33 0 -68 -12t-63.5 -35t-46.5 -55.5t-18 -74.5
q0 -57 21 -98.5t56 -67.5q37 -28 89 -41.5t107.5 -16.5t110.5 2t98 13q36 6 64 14l46 -182q-2 -2 -23 -6.5t-57 -9.5z" />
    <glyph glyph-name="five" unicode="5" horiz-adv-x="1376" 
d="M554 1509q6 -4 39.5 -31.5t85 -74.5t115.5 -111t130 -141.5t128.5 -166.5t111.5 -185.5t78.5 -198.5t29.5 -206q0 -65 -12 -115.5t-31 -89t-42.5 -66t-45.5 -45.5q-32 -27 -64.5 -42.5t-62 -23.5t-53 -10t-36.5 -2q-147 0 -237 88q-16 -17 -37.5 -33t-50 -28.5
t-63.5 -20.5t-77 -8q-99 0 -177 43.5t-127 124.5q-22 37 -35 73.5t-19.5 68t-8 55.5t-1.5 35q0 94 23 185.5t60 177t84.5 163.5t96.5 145t95.5 121t82.5 91q-42 37 -67.5 58t-27.5 21zM1021 223q62 52 62 171q0 69 -18 138.5t-48.5 137.5t-71.5 133.5t-87 126.5t-94.5 116.5
t-94.5 103.5q-31 -33 -72 -80t-84 -105t-84.5 -125.5t-74.5 -140t-53 -149t-20 -152.5q0 -10 2 -25.5t6 -34t11 -38t17 -37.5q25 -38 58.5 -57t84.5 -19q43 0 64.5 12t32.5 24q21 25 30 62.5t11 75.5t-1 71.5t-6 50.5l186 35l4 -28t5 -51.5t1.5 -68t-7.5 -78.5q3 -8 7.5 -21
t12.5 -27q39 -55 125 -55q20 0 46.5 7.5t49.5 26.5z" />
    <glyph glyph-name="six" unicode="6" horiz-adv-x="1136" 
d="M1050 999l-79 -74q-9 -10 -42 -50t-81.5 -103.5t-108.5 -149t-123.5 -187t-126.5 -217t-116 -238.5l-172 76q80 184 175 346.5t184 292.5q-45 -6 -93 -3t-94 16.5t-88.5 38t-76.5 61.5q-57 62 -78.5 134.5t-14.5 143.5t39 135t81 111q38 34 79.5 55t86 34.5t90 23
t92.5 19.5l41 -184q-35 -6 -73 -13.5t-73 -17.5t-65 -23.5t-49 -31.5q-25 -23 -41.5 -55t-20.5 -67t6 -70t38 -65q9 -9 23.5 -21t35 -22t47 -16t58.5 -3q73 4 155.5 52.5t174.5 133.5l83 76z" />
    <glyph glyph-name="seven" unicode="7" horiz-adv-x="1366" 
d="M1295 1355q-51 -60 -100.5 -136.5t-96 -166.5t-89.5 -191.5t-82 -211.5q-33 -93 -59.5 -186t-45 -178t-28.5 -159t-10 -128h-188q0 54 -10 128t-29 159t-45 178t-59 186q-39 110 -82.5 211.5t-90.5 191.5t-96 166.5t-99 136.5l145 122q55 -67 109 -151t105 -181
t98 -206.5t88 -227.5q17 -47 31.5 -93t28.5 -93q14 47 28.5 93t31.5 93q41 118 87.5 227.5t97.5 206.5t105 181t110 151z" />
    <glyph glyph-name="eight" unicode="8" horiz-adv-x="1376" 
d="M929 776q38 -111 81 -212.5t89.5 -191t96 -166t99.5 -136.5l-145 -120q-111 134 -214 330t-186 434q-16 47 -31 94t-29 92q-12 -45 -27.5 -92t-32.5 -94q-81 -238 -184 -434t-214 -330l-147 120q51 60 100.5 136.5t96 166t89.5 191t82 212.5q33 94 59 187t45 178
t29 158.5t10 127.5h188q0 -54 10.5 -127.5t29.5 -158.5t45.5 -178t59.5 -187z" />
    <glyph glyph-name="nine" unicode="9" horiz-adv-x="982" 
d="M717 -51q-18 49 -31 128t-22.5 175t-15.5 202.5t-9 210.5h-173q-18 0 -44 2.5t-57 9t-64 19.5t-65 34q-27 18 -54.5 45t-50 66t-37 91t-14.5 120q0 64 10.5 112t27 85t37 63.5t40.5 47.5q52 54 120 82t144 28q69 0 128.5 -21.5t104.5 -63.5q66 -59 98.5 -145t32.5 -214
q0 -191 5 -356.5t14 -297t21.5 -223t28.5 -133.5zM637 854q-2 50 -2.5 93t-0.5 79q0 68 -10 113.5t-25.5 74t-35.5 42.5t-39.5 20t-36.5 6h-28q-90 0 -140 -57t-50 -173q0 -120 71 -164q18 -12 37.5 -19t37 -10t31 -4t20.5 -1h171z" />
    <glyph glyph-name="colon" unicode=":" horiz-adv-x="533" 
d="M144 104q0 52 30.5 86.5t92 34.5t93 -34.5t31.5 -86.5q0 -49 -31.5 -82.5t-93 -33.5t-92 33.5t-30.5 82.5zM145 913q0 51 30.5 85.5t92 34.5t93 -34.5t31.5 -85.5q0 -50 -31.5 -83t-93 -33t-92 33t-30.5 83z" />
    <glyph glyph-name="semicolon" unicode=";" horiz-adv-x="465" 
d="M157 -312l-113 78q101 141 105 290v179h195v-156q0 -108 -53.5 -216.5t-133.5 -174.5zM125 913q0 51 30.5 85.5t92 34.5t93 -34.5t31.5 -85.5q0 -50 -31.5 -83t-93 -33t-92 33t-30.5 83z" />
    <glyph glyph-name="less" unicode="&#x3c;" horiz-adv-x="1118" 
d="M284 692l672 -272v-211l-879 408v156l879 406v-210z" />
    <glyph glyph-name="equal" unicode="=" horiz-adv-x="1207" 
d="M1059 874h-896v173h896v-173zM1059 429h-896v171h896v-171z" />
    <glyph glyph-name="greater" unicode="&#x3e;" horiz-adv-x="1149" 
d="M854 698l-710 278v205l917 -406v-157l-917 -407v206z" />
    <glyph glyph-name="question" unicode="?" horiz-adv-x="1039" 
d="M383 440q3 128 29.5 202.5t109.5 164.5l141 145q90 102 90 219q0 113 -59 177t-172 64q-109 0 -176 -58t-67 -156h-198q2 174 124 281t317 107q203 0 316.5 -109.5t113.5 -299.5q0 -188 -174 -370l-117 -116q-79 -87 -79 -251h-199zM375 100q0 48 29.5 81t87.5 33t88 -33
t30 -81t-30 -80t-88 -32t-87.5 32t-29.5 80z" />
    <glyph glyph-name="at" unicode="@" horiz-adv-x="1975" 
d="M1867 539q-13 -260 -129 -410t-310 -150q-201 0 -258 180q-58 -91 -132.5 -135.5t-154.5 -44.5q-153 0 -231 124.5t-58 344.5q16 177 81 316t167.5 218.5t215.5 79.5q87 0 156 -23t155 -90l-56 -596q-21 -248 137 -248q122 0 197 120.5t81 313.5q21 418 -154.5 637
t-534.5 219q-216 0 -383.5 -106.5t-264.5 -308.5t-108 -467q-13 -266 64 -462t235.5 -299.5t383.5 -103.5q96 0 193.5 23.5t161.5 61.5l40 -124q-67 -42 -177 -69t-223 -27q-268 0 -461.5 121t-289.5 348t-83 531q13 296 132 531.5t323 364t461 128.5q268 0 459 -120
t284.5 -347t80.5 -531zM765 448q-15 -153 28.5 -234.5t137.5 -81.5q65 0 124.5 55t98.5 157l1 9l49 541q-60 31 -129 31q-125 0 -207.5 -128t-102.5 -349z" />
    <glyph glyph-name="A" unicode="A" horiz-adv-x="1435" 
d="M1045 408h-655l-147 -408h-213l597 1564h181l598 -1564h-211zM452 578h532l-266 731z" />
    <glyph glyph-name="B" unicode="B" horiz-adv-x="1370" 
d="M182 0v1564h511q254 0 382.5 -105t128.5 -312q0 -109 -62 -193.5t-170 -130.5q127 -36 200.5 -135t73.5 -237q0 -210 -136.5 -330.5t-385.5 -120.5h-542zM388 732v-563h340q144 0 227.5 74.5t83.5 205.5q0 283 -307 283h-344zM388 897h311q136 0 217 67.5t81 183.5
q0 129 -75.5 187.5t-228.5 58.5h-305v-497z" />
    <glyph glyph-name="C" unicode="C" horiz-adv-x="1432" 
d="M1332 496q-29 -248 -183 -382.5t-410 -134.5q-277 0 -444 198.5t-167 531.5v150q0 218 78 383.5t220.5 254.5t330.5 89q250 0 400 -139.5t175 -385.5h-207q-27 187 -117 271t-251 84q-197 0 -309.5 -146t-112.5 -416v-151q0 -255 106.5 -405.5t297.5 -150.5q172 0 264 78
t122 271h207z" />
    <glyph glyph-name="D" unicode="D" horiz-adv-x="1443" 
d="M182 0v1564h441q204 0 361 -90t242.5 -256.5t86.5 -382.5v-100q0 -222 -85.5 -388.5t-244 -255.5t-369.5 -91h-432zM388 1394v-1225h217q238 0 371 148t133 422v91q0 267 -125.5 414.5t-355.5 149.5h-240z" />
    <glyph glyph-name="E" unicode="E" horiz-adv-x="1250" 
d="M1066 723h-678v-554h787v-169h-993v1564h982v-170h-776v-502h678v-169z" />
    <glyph glyph-name="F" unicode="F" horiz-adv-x="1216" 
d="M1044 691h-656v-691h-206v1564h968v-170h-762v-535h656v-168z" />
    <glyph glyph-name="G" unicode="G" horiz-adv-x="1499" 
d="M1336 205q-79 -114 -221.5 -170t-331.5 -56q-191 0 -339.5 89.5t-229.5 255t-83 383.5v136q0 354 165 548.5t463 194.5q245 0 394.5 -125.5t182.5 -355.5h-206q-58 311 -369 311q-208 0 -315 -145.5t-108 -421.5v-128q0 -263 120.5 -418.5t325.5 -155.5q116 0 203 26
t144 87v351h-362v168h567v-574z" />
    <glyph glyph-name="H" unicode="H" horiz-adv-x="1568" 
d="M1384 0h-208v723h-788v-723h-206v1564h206v-672h788v672h208v-1564z" />
    <glyph glyph-name="I" unicode="I" horiz-adv-x="598" 
d="M403 0h-206v1564h206v-1564z" />
    <glyph glyph-name="J" unicode="J" horiz-adv-x="1214" 
d="M837 1564h207v-1107q0 -225 -134.5 -351.5t-359.5 -126.5q-233 0 -363 119t-130 334h206q0 -134 73.5 -209.5t213.5 -75.5q128 0 207 80.5t80 225.5v1111z" />
    <glyph glyph-name="K" unicode="K" horiz-adv-x="1379" 
d="M579 727l-191 -198v-529h-206v1564h206v-773l695 773h249l-615 -691l663 -873h-247z" />
    <glyph glyph-name="L" unicode="L" horiz-adv-x="1184" 
d="M389 169h741v-169h-948v1564h207v-1395z" />
    <glyph glyph-name="M" unicode="M" horiz-adv-x="1921" 
d="M448 1564l511 -1276l512 1276h267v-1564h-206v609l19 658l-513 -1267h-158l-513 1263l21 -654v-609h-206v1564h266z" />
    <glyph glyph-name="N" unicode="N" horiz-adv-x="1568" 
d="M1384 0h-208l-787 1205v-1205h-207v1564h207l789 -1211v1211h206v-1564z" />
    <glyph glyph-name="O" unicode="O" horiz-adv-x="1513" 
d="M1385 732q0 -230 -77.5 -401.5t-219.5 -261.5t-331 -90q-184 0 -327 90.5t-222 258.5t-81 390v112q0 226 78.5 399t221.5 265t328 92q188 0 331.5 -91t221 -263.5t77.5 -401.5v-98zM1179 833q0 278 -111.5 426.5t-312.5 148.5q-195 0 -307.5 -148.5t-115.5 -413.5v-114
q0 -270 113.5 -424t311.5 -154q200 0 309.5 145.5t112.5 417.5v116z" />
    <glyph glyph-name="P" unicode="P" horiz-adv-x="1388" 
d="M388 612v-612h-206v1564h576q257 0 402.5 -131t145.5 -347q0 -228 -142 -351t-408 -123h-368zM388 781h370q166 0 254 78t88 225q0 140 -88 223.5t-242 86.5h-382v-613z" />
    <glyph glyph-name="Q" unicode="Q" horiz-adv-x="1513" 
d="M1376 732q0 -227 -72 -391t-202 -256l279 -219l-140 -130l-330 262q-77 -19 -163 -19q-185 0 -328 90.5t-222 258.5t-81 390v112q0 226 78.5 399t222 265t328.5 92q189 0 332 -91.5t220.5 -263t77.5 -400.5v-99zM1170 833q0 276 -110 425.5t-314 149.5
q-195 0 -307 -148.5t-116 -413.5v-114q0 -269 112.5 -423.5t312 -154.5t309.5 145.5t113 417.5v116z" />
    <glyph glyph-name="R" unicode="R" horiz-adv-x="1355" 
d="M755 633h-367v-633h-208v1564h518q265 0 407 -120.5t142 -349.5q0 -147 -79 -255.5t-219 -161.5l367 -664v-13h-221zM388 801h317q153 0 244 79.5t91 213.5q0 145 -86.5 222t-249.5 78h-316v-593z" />
    <glyph glyph-name="S" unicode="S" horiz-adv-x="1305" 
d="M642 697q-265 76 -386 187.5t-121 274.5q0 185 148 306t384 121q161 0 287.5 -62.5t195.5 -172t69 -239.5h-207q0 142 -90.5 223t-254.5 81q-152 0 -237.5 -67t-85.5 -187q0 -95 81 -161t276 -121t305 -121t163 -154t53 -208q0 -190 -148 -304t-396 -114
q-161 0 -301 61.5t-215.5 169t-75.5 243.5h207q0 -141 105 -223.5t280 -82.5q163 0 250 66.5t87 181.5t-80.5 178t-292.5 124z" />
    <glyph glyph-name="T" unicode="T" horiz-adv-x="1313" 
d="M1262 1394h-503v-1394h-205v1394h-501v170h1209v-170z" />
    <glyph glyph-name="U" unicode="U" horiz-adv-x="1427" 
d="M1283 1564v-1063q-1 -222 -139.5 -362.5t-374.5 -157.5l-55 -2q-256 0 -408.5 138.5t-155.5 380.5v1066h204v-1059q0 -170 93.5 -264t266.5 -94q175 0 268 93.5t93 263.5v1060h208z" />
    <glyph glyph-name="V" unicode="V" horiz-adv-x="1400" 
d="M699 274l447 1290h226l-580 -1564h-183l-579 1564h225z" />
    <glyph glyph-name="W" unicode="W" horiz-adv-x="1952" 
d="M519 493l30 -206l44 186l309 1091h174l302 -1091l43 -189l33 210l243 1070h208l-380 -1564h-188l-322 1140l-25 119l-24 -119l-334 -1140h-188l-378 1564h206z" />
    <glyph glyph-name="X" unicode="X" horiz-adv-x="1379" 
d="M692 965l375 599h242l-494 -776l506 -788h-245l-384 610l-387 -610h-244l507 788l-495 776h242z" />
    <glyph glyph-name="Y" unicode="Y" horiz-adv-x="1321" 
d="M658 779l409 785h234l-539 -981v-583h-207v583l-539 981h236z" />
    <glyph glyph-name="Z" unicode="Z" horiz-adv-x="1317" 
d="M336 169h895v-169h-1139v155l858 1239h-844v170h1091v-151z" />
    <glyph glyph-name="bracketleft" unicode="[" horiz-adv-x="583" 
d="M562 1624h-205v-1796h205v-163h-405v2123h405v-164z" />
    <glyph glyph-name="backslash" unicode="\" horiz-adv-x="902" 
d="M43 1564h189l653 -1698h-189z" />
    <glyph glyph-name="bracketright" unicode="]" horiz-adv-x="583" 
d="M10 1788h406v-2123h-406v163h207v1796h-207v164z" />
    <glyph glyph-name="asciicircum" unicode="^" horiz-adv-x="920" 
d="M458 1301l-204 -518h-185l321 781h136l320 -781h-183z" />
    <glyph glyph-name="underscore" unicode="_" horiz-adv-x="993" 
d="M988 -162h-984v162h984v-162z" />
    <glyph glyph-name="grave" unicode="`" horiz-adv-x="680" 
d="M509 1332h-171l-277 316h240z" />
    <glyph glyph-name="a" unicode="a" horiz-adv-x="1197" 
d="M868 0q-17 34 -28 122q-139 -143 -331 -143q-172 0 -282 97t-110 246q0 182 138 282.5t388 100.5h194v91q0 104 -62.5 166t-183.5 62q-107 0 -178.5 -54t-71.5 -130h-200q0 87 61.5 168t167.5 128.5t233 47.5q201 0 314.5 -100.5t118.5 -276.5v-535q0 -160 40 -255v-17
h-208zM538 151q94 0 177.5 48.5t121.5 125.5v239h-156q-365 0 -365 -214q0 -93 62 -146t160 -53z" />
    <glyph glyph-name="b" unicode="b" horiz-adv-x="1234" 
d="M1134 568q0 -266 -122.5 -427.5t-328.5 -161.5q-220 0 -340 155l-10 -134h-183v1650h199v-616q120 150 332 150t332.5 -160t120.5 -439v-17zM936 591q0 203 -78.5 313.5t-225.5 110.5q-197 0 -283 -182v-503q91 -183 285 -183q143 0 222.5 110.5t79.5 333.5z" />
    <glyph glyph-name="c" unicode="c" horiz-adv-x="1152" 
d="M617 141q106 0 185.5 64.5t88.5 160.5h188q-6 -100 -69.5 -190t-169 -143.5t-223.5 -53.5q-238 0 -378 158t-140 433v34q0 169 62 301.5t179 205.5t276 73q195 0 324.5 -117t138.5 -304h-188q-9 112 -86 185t-189 73q-152 0 -235 -109.5t-83 -315.5v-37
q0 -201 82.5 -309.5t236.5 -108.5z" />
    <glyph glyph-name="d" unicode="d" horiz-adv-x="1241" 
d="M102 591q0 267 127 430t332 163q204 0 323 -140v606h199v-1650h-183l-9 125q-120 -146 -332 -146q-202 0 -329.5 165t-127.5 432v15zM301 568q0 -197 81.5 -309t225.5 -112q189 0 276 170v534q-89 164 -274 164q-146 0 -227.5 -112.5t-81.5 -334.5z" />
    <glyph glyph-name="e" unicode="e" horiz-adv-x="1166" 
d="M633 -21q-237 0 -385 155t-148 415v36q0 173 66 309t184.5 213t257.5 77q227 0 352.5 -149.5t125.5 -427.5v-83h-787q4 -172 100 -277.5t244 -105.5q106 0 179 43t128 114l121 -95q-146 -224 -438 -224zM608 1021q-120 0 -202 -88t-101 -245h582v15q-8 151 -81 234.5
t-198 83.5z" />
    <glyph glyph-name="f" unicode="f" horiz-adv-x="764" 
d="M248 0v1009h-184v153h184v120q0 186 100 288.5t283 102.5q68 0 136 -19l-11 -161q-50 10 -107 10q-97 0 -149.5 -56.5t-52.5 -161.5v-123h248v-153h-248v-1009h-199z" />
    <glyph glyph-name="g" unicode="g" horiz-adv-x="1234" 
d="M103 591q0 272 125.5 432.5t333.5 160.5q213 0 332 -151l9 129h182v-1134q0 -226 -134 -356t-359 -130q-126 0 -246 54t-184 147l103 120q128 -158 313 -158q145 0 226 81.5t81 229.5v100q-119 -137 -325 -137q-204 0 -330.5 164t-126.5 448zM303 568q0 -196 80.5 -308.5
t225.5 -112.5q188 0 276 171v531q-91 166 -274 166q-145 0 -226.5 -112.5t-81.5 -334.5z" />
    <glyph glyph-name="h" unicode="h" horiz-adv-x="1212" 
d="M349 1022q132 162 344 162q368 0 372 -416v-768h-199v769q-1 126 -57.5 186t-175.5 60q-97 0 -170 -51.5t-114 -135.5v-828h-199v1650h199v-628z" />
    <glyph glyph-name="i" unicode="i" horiz-adv-x="534" 
d="M366 0h-198v1162h198v-1162zM151 1471q0 48 30 81.5t88 33.5t88 -33.5t30 -82t-30 -80.5t-88 -32t-88 32t-30 81z" />
    <glyph glyph-name="j" unicode="j" horiz-adv-x="525" 
d="M356 1162v-1296q0 -335 -304 -335q-66 0 -122 19v159q35 -9 90 -9q67 0 102 36t35 125v1301h199zM136 1471q0 47 30 81t86 34q58 0 88.5 -33.5t30.5 -82t-30.5 -80.5t-88.5 -32t-87 32t-29 81z" />
    <glyph glyph-name="k" unicode="k" horiz-adv-x="1115" 
d="M475 538l-125 -130v-408h-199v1650h199v-998l107 128l362 382h241l-452 -485l505 -677h-233z" />
    <glyph glyph-name="l" unicode="l" horiz-adv-x="534" 
d="M366 0h-198v1650h198v-1650z" />
    <glyph glyph-name="m" unicode="m" horiz-adv-x="1928" 
d="M337 1162l6 -129q128 151 345 151q243 0 331 -187q58 84 151 135.5t220 51.5q382 0 389 -405v-779h-199v767q0 125 -57 186.5t-191 61.5q-111 0 -184 -66t-85 -178v-771h-199v762q0 253 -248 253q-196 0 -268 -166v-849h-199v1162h188z" />
    <glyph glyph-name="n" unicode="n" horiz-adv-x="1214" 
d="M338 1162l7 -146q133 168 348 168q368 0 372 -416v-768h-199v769q-1 126 -57.5 186t-175.5 60q-97 0 -170 -51.5t-114 -135.5v-828h-199v1162h188z" />
    <glyph glyph-name="o" unicode="o" horiz-adv-x="1255" 
d="M98 592q0 171 67 307.5t187 210.5t273 74q238 0 384.5 -164.5t146.5 -437.5v-14q0 -169 -65 -304t-186 -210t-278 -75q-236 0 -382.5 164t-146.5 435v14zM298 568q0 -193 89.5 -310t239.5 -117q152 0 241 118.5t89 332.5q0 191 -90.5 310t-241.5 119q-147 0 -237 -117.5
t-90 -335.5z" />
    <glyph glyph-name="p" unicode="p" horiz-adv-x="1234" 
d="M1132 568q0 -265 -121.5 -427t-328.5 -162q-211 0 -333 134v-560h-199v1609h182l10 -129q121 151 337 151q209 0 331 -158t122 -439v-19zM933 591q0 196 -83.5 310t-229.5 114q-181 0 -271 -160v-555q89 -159 273 -159q143 0 227 113t84 337z" />
    <glyph glyph-name="q" unicode="q" horiz-adv-x="1250" 
d="M102 591q0 274 125.5 433.5t337.5 159.5q206 0 326 -139l8 117h183v-1609h-199v554q-120 -128 -320 -128q-211 0 -336 163.5t-125 434.5v14zM301 568q0 -200 84 -313.5t227 -113.5q178 0 271 157v569q-95 154 -269 154q-143 0 -228 -114.5t-85 -338.5z" />
    <glyph glyph-name="r" unicode="r" horiz-adv-x="744" 
d="M712 984q-45 8 -98 8q-195 0 -265 -167v-825h-199v1162h194l3 -134q98 156 277 156q58 0 88 -15v-185z" />
    <glyph glyph-name="s" unicode="s" horiz-adv-x="1134" 
d="M827 308q0 81 -60.5 125.5t-211.5 76.5t-239.5 77.5t-131 107.5t-42.5 148q0 143 120.5 242t308.5 99q198 0 321 -102t123 -261h-200q0 81 -69 140.5t-175 59.5q-108 0 -169 -47.5t-61 -123.5q0 -72 56.5 -108.5t205.5 -70t241.5 -79.5t137 -111t44.5 -159
q0 -155 -124.5 -249t-323.5 -94q-140 0 -247.5 49t-168 138t-60.5 192h199q5 -100 79.5 -158.5t197.5 -58.5q113 0 181 45.5t68 121.5z" />
    <glyph glyph-name="t" unicode="t" horiz-adv-x="719" 
d="M420 1444v-282h217v-153h-217v-721q0 -70 29 -105t99 -35q34 0 94 13v-161q-78 -21 -152 -21q-133 0 -201 80.5t-68 228.5v721h-211v153h211v282h199z" />
    <glyph glyph-name="u" unicode="u" horiz-adv-x="1213" 
d="M868 115q-116 -136 -341 -136q-185 0 -282.5 107.5t-98.5 319.5v756h199v-751q0 -264 215 -264q227 0 303 170v845h198v-1162h-189z" />
    <glyph glyph-name="v" unicode="v" horiz-adv-x="1066" 
d="M534 270l288 892h203l-417 -1162h-151l-422 1162h203z" />
    <glyph glyph-name="w" unicode="w" horiz-adv-x="1653" 
d="M1179 274l224 888h199l-339 -1162h-161l-282 881l-275 -881h-162l-337 1162h198l229 -870l270 870h160z" />
    <glyph glyph-name="x" unicode="x" horiz-adv-x="1090" 
d="M540 738l258 424h232l-380 -574l392 -588h-230l-268 435l-269 -435h-231l392 588l-380 574h230z" />
    <glyph glyph-name="y" unicode="y" horiz-adv-x="1041" 
d="M531 291l270 871h213l-467 -1341q-109 -290 -345 -290l-38 3l-74 14v161l54 -4q101 0 157.5 40.5t92.5 149.5l44 118l-414 1149h217z" />
    <glyph glyph-name="z" unicode="z" horiz-adv-x="1090" 
d="M337 162h680v-162h-922v146l641 852h-632v164h881v-140z" />
    <glyph glyph-name="braceleft" unicode="{" horiz-adv-x="744" 
d="M679 -393q-190 54 -286.5 177t-96.5 324v214q0 261 -227 261v156q227 0 227 260v223q3 197 97 318t286 176l41 -124q-225 -72 -225 -375v-217q0 -244 -179 -339q179 -97 179 -343v-221q3 -296 225 -367z" />
    <glyph glyph-name="bar" unicode="|" horiz-adv-x="536" 
d="M348 -290h-160v1854h160v-1854z" />
    <glyph glyph-name="braceright" unicode="}" horiz-adv-x="744" 
d="M20 -270q218 70 226 356v236q0 248 194 339q-194 88 -194 338v218q0 303 -225 375l41 124q190 -54 286 -175t97 -320v-225q0 -257 227 -257v-156q-227 0 -227 -261v-217q0 -202 -97.5 -323t-285.5 -175z" />
    <glyph glyph-name="asciitilde" unicode="~" horiz-adv-x="1496" 
d="M1357 835q0 -170 -100.5 -286.5t-247.5 -116.5q-78 0 -146.5 28.5t-159.5 108t-130.5 98.5t-84.5 19q-84 0 -129 -57.5t-45 -157.5l-173 -3q0 172 98.5 283t248.5 111q81 0 156.5 -34.5t170 -121t163.5 -97.5l31 -2q81 0 132 62.5t51 164.5z" />
    <glyph glyph-name="exclamdown" unicode="&#xa1;" horiz-adv-x="536" 
d="M183 735h180l14 -1122h-208zM385 1070q0 -48 -30 -81.5t-88 -33.5t-88 33.5t-30 81.5t30 80.5t88 32.5t88 -32.5t30 -80.5z" />
    <glyph glyph-name="cent" unicode="&#xa2;" horiz-adv-x="1203" 
d="M629 141q108 0 187.5 65t87.5 160h188q-6 -135 -112.5 -243t-260.5 -136v-250h-199v251q-192 37 -299.5 189.5t-107.5 388.5v38q0 227 108.5 380.5t298.5 188.5v243h199v-240q161 -24 264 -138t109 -275h-188q-8 112 -85 185t-190 73q-151 0 -234 -109.5t-83 -315.5v-37
q0 -201 83 -309.5t234 -108.5z" />
    <glyph glyph-name="sterling" unicode="&#xa3;" horiz-adv-x="1278" 
d="M482 668l9 -236q0 -166 -67 -263h788l-1 -169h-1109v169h83q43 9 69.5 79.5t29.5 173.5v9l-9 237h-177v169h172l-10 279q0 214 131.5 342t346.5 128q204 0 323.5 -114t119.5 -304h-206q0 115 -68 181.5t-187 66.5q-113 0 -183 -83t-70 -217l10 -279h343v-169h-338z" />
    <glyph glyph-name="currency" unicode="&#xa4;" horiz-adv-x="1568" 
d="M1185 120q-171 -141 -395 -141q-223 0 -394 139l-144 -146l-139 145l149 152q-112 167 -112 384q0 221 121 397l-158 162l139 146l158 -161q170 129 380 129t381 -130l160 163l142 -147l-162 -166q118 -175 118 -393q0 -210 -110 -381l154 -155l-142 -146zM334 653
q0 -132 62 -246t167 -179.5t226.5 -65.5t226.5 66t166 179.5t61 245.5q0 131 -61 244.5t-166.5 178.5t-225.5 65q-122 0 -227 -64.5t-167 -178.5t-62 -245z" />
    <glyph glyph-name="yen" unicode="&#xa5;" horiz-adv-x="1332" 
d="M660 840l391 724h235l-449 -773h335v-135h-413v-177h413v-133h-413v-346h-207v346h-406v133h406v177h-406v135h336l-449 773h237z" />
    <glyph glyph-name="brokenbar" unicode="&#xa6;" horiz-adv-x="527" 
d="M158 -290v850h200v-850h-200zM358 750h-200v814h200v-814z" />
    <glyph glyph-name="section" unicode="&#xa7;" horiz-adv-x="1349" 
d="M1230 463q0 -203 -200 -294q74 -53 113 -126t39 -180q0 -181 -140 -288t-385 -107q-120 0 -228 30t-183 92q-149 121 -149 341l199 2q0 -139 97 -220t264 -81q147 0 236 62.5t89 165.5q0 96 -76.5 152.5t-300.5 122.5q-196 52 -299 111.5t-153 143t-50 202.5
q0 200 196 294q-71 53 -109.5 126t-38.5 180q0 179 143.5 286.5t382.5 107.5q249 0 388.5 -121.5t139.5 -341.5h-198q0 134 -90.5 217t-239.5 83q-153 0 -239.5 -61.5t-86.5 -166.5q0 -75 30 -118t102.5 -77.5t227 -77.5t245 -82t151.5 -91t92 -121t31 -165zM647 742
q-97 26 -178 55q-86 -20 -126 -74.5t-40 -128.5q0 -75 29 -118t100.5 -78.5t224 -79.5t199.5 -62q84 21 129 75.5t45 128.5q0 94 -74.5 152.5t-308.5 129.5z" />
    <glyph glyph-name="dieresis" unicode="&#xa8;" horiz-adv-x="920" 
d="M110 1473q0 48 29.5 81t87.5 33t88 -33t30 -81.5t-30 -80.5t-88 -32t-87.5 32t-29.5 81zM571 1471q0 48 30 81.5t88 33.5t88 -33.5t30 -82t-30 -80.5t-88 -32t-88 32t-30 81z" />
    <glyph glyph-name="copyright" unicode="&#xa9;" horiz-adv-x="1728" 
d="M1202 641q0 -164 -93 -250.5t-263 -86.5q-168 0 -269.5 113.5t-101.5 308.5v118q0 189 102.5 302.5t268.5 113.5q172 0 264.5 -88t92.5 -248h-157q0 106 -51 151.5t-149 45.5q-100 0 -158.5 -74t-58.5 -206v-121q0 -129 58.5 -203t158.5 -74q99 0 149 45t50 153h157z
M221 783q0 -185 86 -342t234 -246.5t319.5 -89.5t319 89.5t233.5 246.5t86 342q0 183 -85 338.5t-233 245.5t-321 90q-171 0 -319.5 -89t-234 -245.5t-85.5 -339.5zM98 783q0 217 100.5 403t278 293t384 107t383.5 -107t277.5 -293t100.5 -403q0 -212 -96.5 -396.5
t-274.5 -297t-391 -112.5q-211 0 -389 111.5t-275.5 296t-97.5 398.5z" />
    <glyph glyph-name="ordfeminine" unicode="&#xaa;" horiz-adv-x="983" 
d="M664 757q-13 37 -19 78q-82 -93 -220 -93q-127 0 -197 66.5t-70 177.5q0 119 89.5 183.5t274.5 64.5h116v56q0 145 -133 145q-74 0 -116.5 -29t-42.5 -84l-173 13q0 111 92.5 181t239.5 70q143 0 225.5 -77t82.5 -221v-339q0 -105 28 -192h-177zM467 889q46 0 93.5 21.5
t77.5 50.5v153h-120q-89 -1 -137 -35t-48 -89q0 -101 134 -101z" />
    <glyph glyph-name="guillemotleft" unicode="&#xab;" horiz-adv-x="1032" 
d="M301 589l277 -427h-152l-316 417v20l316 418h152zM655 589l277 -427h-151l-317 417v20l317 418h151z" />
    <glyph glyph-name="logicalnot" unicode="&#xac;" horiz-adv-x="1218" 
d="M1029 403h-200v283h-693v173h893v-456z" />
    <glyph glyph-name="uni00AD" unicode="&#xad;" horiz-adv-x="607" 
d="M564 583h-524v163h524v-163z" />
    <glyph glyph-name="registered" unicode="&#xae;" horiz-adv-x="1729" 
d="M97 783q0 217 100.5 403t278 293t384 107t383.5 -107t277.5 -293t100.5 -403q0 -212 -96.5 -396.5t-274.5 -297t-391 -112.5q-211 0 -389 111.5t-275.5 296t-97.5 398.5zM220 783q0 -185 86 -342t234 -246.5t319 -89.5q173 0 321.5 91t232.5 246.5t84 340.5
q0 184 -84 339t-232.5 245t-321.5 90q-171 0 -319.5 -89t-234 -245.5t-85.5 -339.5zM701 703v-364h-151v912h296q165 0 255.5 -70t90.5 -205q0 -132 -137 -201q131 -54 132 -220v-65q0 -93 18 -133v-18h-155q-16 39 -16 138.5t-3 117.5q-17 103 -140 108h-190zM701 840h168
q77 2 124.5 37.5t47.5 93.5q0 79 -42 111.5t-149 32.5h-149v-275z" />
    <glyph glyph-name="macron" unicode="&#xaf;" horiz-adv-x="1008" 
d="M896 1410h-767v154h767v-154z" />
    <glyph glyph-name="degree" unicode="&#xb0;" horiz-adv-x="822" 
d="M140 1306q0 112 80 196t194 84q111 0 190 -83.5t79 -196.5q0 -114 -79 -194.5t-190 -80.5q-113 0 -193.5 80.5t-80.5 194.5zM414 1169q58 0 97.5 38t39.5 99q0 63 -39.5 103t-97.5 40q-60 0 -100 -42.5t-40 -100.5t40 -97.5t100 -39.5z" />
    <glyph glyph-name="plusminus" unicode="&#xb1;" horiz-adv-x="1175" 
d="M697 917h391v-162h-391v-445h-179v445h-414v162h414v444h179v-444zM1042 0h-897v163h897v-163z" />
    <glyph glyph-name="uni00B2" unicode="&#xb2;" horiz-adv-x="807" 
d="M734 717h-644v116l323 302q117 110 117 184q0 53 -34.5 85.5t-99.5 32.5q-80 0 -118 -40.5t-38 -102.5h-169q0 123 89.5 202.5t231.5 79.5t224.5 -68.5t82.5 -186.5q0 -111 -115 -226l-90 -85l-189 -156h429v-137z" />
    <glyph glyph-name="uni00B3" unicode="&#xb3;" horiz-adv-x="807" 
d="M285 1208h90q79 0 118 33t39 85q0 48 -34 79t-109 31q-61 0 -101.5 -27.5t-40.5 -71.5h-169q0 106 88 172t221 66q147 0 230.5 -65t83.5 -177q0 -59 -37.5 -108t-108.5 -76q160 -44 160 -197q0 -114 -91 -181t-237 -67q-142 0 -231 67.5t-89 182.5h169q0 -48 42.5 -80.5
t114.5 -32.5q75 0 114.5 32.5t39.5 86.5q0 122 -168 124h-94v124z" />
    <glyph glyph-name="acute" unicode="&#xb4;" horiz-adv-x="690" 
d="M339 1648h241l-288 -316h-160z" />
    <glyph glyph-name="mu" unicode="&#xb5;" horiz-adv-x="1246" 
d="M364 1162v-680q1 -175 56.5 -258.5t179.5 -83.5q214 0 281 163v859h200v-1162h-180l-9 124q-100 -145 -283 -145q-158 0 -245 78v-504h-199v1609h199z" />
    <glyph glyph-name="paragraph" unicode="&#xb6;" horiz-adv-x="1075" 
d="M694 0v559h-90q-247 0 -389.5 136t-142.5 366q0 229 143 366t390 137h289v-1564h-200z" />
    <glyph glyph-name="periodcentered" unicode="&#xb7;" horiz-adv-x="574" 
d="M158 783q0 52 30.5 86t92 34t93 -34t31.5 -86q0 -50 -31.5 -84t-93 -34t-92 34t-30.5 84z" />
    <glyph glyph-name="cedilla" unicode="&#xb8;" horiz-adv-x="545" 
d="M306 0l-13 -56q165 -29 165 -186q0 -104 -86 -164.5t-240 -60.5l-7 115q84 0 131 28t47 78q0 47 -34.5 69.5t-139.5 32.5l34 144h143z" />
    <glyph glyph-name="uni00B9" unicode="&#xb9;" horiz-adv-x="807" 
d="M532 724h-169v646l-232 -62v138l381 126h20v-848z" />
    <glyph glyph-name="ordmasculine" unicode="&#xba;" horiz-adv-x="1000" 
d="M131 1206q0 170 101 275t266 105q167 0 268 -104t101 -282v-80q0 -170 -100.5 -274.5t-266 -104.5t-267.5 104.5t-102 281.5v79zM306 1120q0 -107 52 -168t143 -61q89 0 140 61.5t51 170.5v83q0 107 -52 168t-142 61q-87 0 -138.5 -59t-53.5 -163v-93z" />
    <glyph glyph-name="guillemotright" unicode="&#xbb;" horiz-adv-x="1031" 
d="M262 1019l317 -417v-21l-317 -418h-152l277 428l-277 428h152zM637 1019l317 -417v-21l-317 -418h-153l278 428l-278 428h153z" />
    <glyph glyph-name="onequarter" unicode="&#xbc;" horiz-adv-x="1611" 
d="M492 713h-169v646l-232 -61v137l382 126h19v-848zM476 127l-112 71l764 1222l112 -71zM1416 321h115v-139h-115v-182h-169v182h-403l-6 109l405 557h173v-527zM1008 321h239v311l-18 -30z" />
    <glyph glyph-name="onehalf" unicode="&#xbd;" horiz-adv-x="1707" 
d="M429 127l-112 71l764 1222l111 -71zM487 713h-169v646l-232 -61v137l381 126h20v-848zM1591 0h-644v116l323 303q117 110 117 184q0 52 -34.5 85t-98.5 33q-81 0 -119 -41t-38 -102h-169q0 122 90 201.5t231.5 79.5t224.5 -68t83 -186q0 -112 -115 -227l-91 -85
l-189 -155h429v-138z" />
    <glyph glyph-name="threequarters" unicode="&#xbe;" horiz-adv-x="1711" 
d="M612 127l-111 71l763 1222l112 -71zM1515 321h115v-139h-115v-182h-169v182h-403l-6 109l405 557h173v-527zM1106 321h240v311l-18 -30zM337 1210h91q79 0 117.5 32.5t38.5 84.5q0 48 -33.5 79t-108.5 31q-62 0 -102 -27t-40 -72h-169q0 106 87.5 172t220.5 66
q148 0 231.5 -65t83.5 -177q0 -59 -37.5 -108t-108.5 -76q160 -44 160 -197q0 -114 -91.5 -181t-237.5 -67q-141 0 -230.5 67.5t-89.5 182.5h170q0 -48 42.5 -80.5t114.5 -32.5q75 0 114 32.5t39 86.5q0 122 -167 124h-95v125z" />
    <glyph glyph-name="questiondown" unicode="&#xbf;" horiz-adv-x="1041" 
d="M632 730q-1 -113 -23 -181.5t-74 -132t-150.5 -167t-110.5 -209.5l-2 -40q0 -117 62 -179t179 -62q108 0 175 61t67 159h199q-2 -173 -123 -283t-318 -110q-210 0 -325 108t-115 301q0 185 172 373l117 122q71 84 71 240h199zM640 1071q0 -48 -29.5 -81.5t-87.5 -33.5
t-88 33.5t-30 81.5q0 47 30 79.5t88 32.5t87.5 -32.5t29.5 -79.5z" />
    <glyph glyph-name="Agrave" unicode="&#xc0;" horiz-adv-x="1435" 
d="M1045 408h-655l-147 -408h-213l597 1564h181l598 -1564h-211zM452 578h532l-266 731zM836 1665h-171l-277 316h239z" />
    <glyph glyph-name="Aacute" unicode="&#xc1;" horiz-adv-x="1435" 
d="M1045 408h-655l-147 -408h-213l597 1564h181l598 -1564h-211zM452 578h532l-266 731zM820 1981h240l-288 -316h-160z" />
    <glyph glyph-name="Acircumflex" unicode="&#xc2;" horiz-adv-x="1435" 
d="M1045 408h-655l-147 -408h-213l597 1564h181l598 -1564h-211zM452 578h532l-266 731zM1047 1689v-11h-164l-161 183l-160 -183h-165v13l265 292h120z" />
    <glyph glyph-name="Atilde" unicode="&#xc3;" horiz-adv-x="1435" 
d="M1045 408h-655l-147 -408h-213l597 1564h181l598 -1564h-211zM452 578h532l-266 731zM1103 1949q0 -116 -66 -188t-165 -72q-44 0 -76 10.5t-84 44t-75.5 40.5t-53.5 7q-44 0 -75 -34t-31 -87l-133 8q0 115 65 190t165 75q37 0 67 -10.5t82 -42t79 -41t61 -9.5
q46 0 76.5 36.5t30.5 85.5z" />
    <glyph glyph-name="Adieresis" unicode="&#xc4;" horiz-adv-x="1435" 
d="M1045 408h-655l-147 -408h-213l597 1564h181l598 -1564h-211zM452 578h532l-266 731zM377 1806q0 48 29.5 81t87.5 33t88 -33t30 -81.5t-30 -80.5t-88 -32t-87.5 32t-29.5 81zM839 1804q0 48 29.5 81.5t87.5 33.5t88 -33.5t30 -82t-30 -80.5t-88 -32t-87.5 32t-29.5 81z
" />
    <glyph glyph-name="Aring" unicode="&#xc5;" horiz-adv-x="1435" 
d="M1045 408h-655l-147 -408h-213l597 1564h181l598 -1564h-211zM452 578h532l-266 731zM953 1857q0 -93 -66.5 -156t-164.5 -63q-99 0 -165 63.5t-66 156t66 158t165 65.5t165 -65.5t66 -158.5zM597 1857q0 -50 36 -86.5t89 -36.5q51 0 87.5 35.5t36.5 88t-35.5 89.5
t-88.5 37q-54 0 -89.5 -37.5t-35.5 -89.5z" />
    <glyph glyph-name="AE" unicode="&#xc6;" horiz-adv-x="2056" 
d="M2018 0h-948l-16 379h-606l-220 -379h-243l945 1564h1022v-163h-742l21 -506h634v-162h-627l23 -571h757v-162zM556 566h490l-33 788z" />
    <glyph glyph-name="Ccedilla" unicode="&#xc7;" horiz-adv-x="1432" 
d="M1332 496q-29 -248 -183 -382.5t-410 -134.5q-277 0 -444 198.5t-167 531.5v150q0 218 78 383.5t220.5 254.5t330.5 89q250 0 400 -139.5t175 -385.5h-207q-27 187 -117 271t-251 84q-197 0 -309.5 -146t-112.5 -416v-151q0 -255 106.5 -405.5t297.5 -150.5q172 0 264 78
t122 271h207zM807 -10l-13 -56q164 -29 164 -185q0 -105 -86 -165.5t-239 -60.5l-8 115q85 0 132 28t47 78q0 48 -34.5 70.5t-140.5 31.5l35 144h143z" />
    <glyph glyph-name="Egrave" unicode="&#xc8;" horiz-adv-x="1250" 
d="M1066 723h-678v-554h787v-169h-993v1564h982v-170h-776v-502h678v-169zM779 1678h-171l-277 316h239z" />
    <glyph glyph-name="Eacute" unicode="&#xc9;" horiz-adv-x="1250" 
d="M1066 723h-678v-554h787v-169h-993v1564h982v-170h-776v-502h678v-169zM763 1994h240l-288 -316h-160z" />
    <glyph glyph-name="Ecircumflex" unicode="&#xca;" horiz-adv-x="1250" 
d="M1066 723h-678v-554h787v-169h-993v1564h982v-170h-776v-502h678v-169zM990 1702v-11h-164l-161 182l-160 -182h-164v13l264 292h120z" />
    <glyph glyph-name="Edieresis" unicode="&#xcb;" horiz-adv-x="1250" 
d="M1066 723h-678v-554h787v-169h-993v1564h982v-170h-776v-502h678v-169zM320 1819q0 48 29.5 81t87.5 33t88 -33t30 -81.5t-30 -80.5t-88 -32t-87.5 32t-29.5 81zM782 1817q0 48 29.5 81t87.5 33t88 -33t30 -81.5t-30 -80.5t-88 -32t-87.5 32t-29.5 81z" />
    <glyph glyph-name="Igrave" unicode="&#xcc;" horiz-adv-x="598" 
d="M403 0h-206v1564h206v-1564zM414 1678h-171l-277 316h239z" />
    <glyph glyph-name="Iacute" unicode="&#xcd;" horiz-adv-x="598" 
d="M403 0h-206v1564h206v-1564zM396 1994h241l-288 -316h-160z" />
    <glyph glyph-name="Icircumflex" unicode="&#xce;" horiz-adv-x="598" 
d="M403 0h-206v1564h206v-1564zM625 1702v-11h-164l-161 182l-160 -182h-165v13l265 292h120z" />
    <glyph glyph-name="Idieresis" unicode="&#xcf;" horiz-adv-x="598" 
d="M403 0h-206v1564h206v-1564zM-45 1819q0 48 29.5 81t87.5 33t88 -33t30 -81.5t-30 -80.5t-88 -32t-87.5 32t-29.5 81zM417 1817q0 48 29.5 81t87.5 33t88 -33t30 -81.5t-30 -80.5t-88 -32t-87.5 32t-29.5 81z" />
    <glyph glyph-name="Eth" unicode="&#xd0;" horiz-adv-x="1475" 
d="M214 0v715h-174v163h174v686h441q204 0 361 -90t242.5 -256.5t86.5 -382.5v-100q0 -222 -85.5 -388.5t-244 -255.5t-368.5 -91h-433zM723 715h-303v-546h216q238 0 371 147t134 414v100q0 267 -125 414.5t-355 149.5h-241v-516h303v-163z" />
    <glyph glyph-name="Ntilde" unicode="&#xd1;" horiz-adv-x="1568" 
d="M1384 0h-208l-787 1205v-1205h-207v1564h207l789 -1211v1211h206v-1564zM1161 1949q0 -116 -66 -188t-165 -72q-44 0 -76 10.5t-84 44t-75.5 40.5t-53.5 7q-44 0 -75 -34t-31 -87l-133 8q0 115 65 190t165 75q37 0 67 -10.5t82 -42t79 -41t61 -9.5q46 0 76.5 36.5
t30.5 85.5z" />
    <glyph glyph-name="Ograve" unicode="&#xd2;" horiz-adv-x="1513" 
d="M1385 732q0 -230 -77.5 -401.5t-219.5 -261.5t-331 -90q-184 0 -327 90.5t-222 258.5t-81 390v112q0 226 78.5 399t221.5 265t328 92q188 0 331.5 -91t221 -263.5t77.5 -401.5v-98zM1179 833q0 278 -111.5 426.5t-312.5 148.5q-195 0 -307.5 -148.5t-115.5 -413.5v-114
q0 -270 113.5 -424t311.5 -154q200 0 309.5 145.5t112.5 417.5v116zM872 1667h-171l-277 316h240z" />
    <glyph glyph-name="Oacute" unicode="&#xd3;" horiz-adv-x="1513" 
d="M1385 732q0 -230 -77.5 -401.5t-219.5 -261.5t-331 -90q-184 0 -327 90.5t-222 258.5t-81 390v112q0 226 78.5 399t221.5 265t328 92q188 0 331.5 -91t221 -263.5t77.5 -401.5v-98zM1179 833q0 278 -111.5 426.5t-312.5 148.5q-195 0 -307.5 -148.5t-115.5 -413.5v-114
q0 -270 113.5 -424t311.5 -154q200 0 309.5 145.5t112.5 417.5v116zM856 1983h241l-288 -316h-160z" />
    <glyph glyph-name="Ocircumflex" unicode="&#xd4;" horiz-adv-x="1513" 
d="M1385 732q0 -230 -77.5 -401.5t-219.5 -261.5t-331 -90q-184 0 -327 90.5t-222 258.5t-81 390v112q0 226 78.5 399t221.5 265t328 92q188 0 331.5 -91t221 -263.5t77.5 -401.5v-98zM1179 833q0 278 -111.5 426.5t-312.5 148.5q-195 0 -307.5 -148.5t-115.5 -413.5v-114
q0 -270 113.5 -424t311.5 -154q200 0 309.5 145.5t112.5 417.5v116zM1084 1691v-11h-164l-162 183l-160 -183h-164v13l264 292h121z" />
    <glyph glyph-name="Otilde" unicode="&#xd5;" horiz-adv-x="1513" 
d="M1385 732q0 -230 -77.5 -401.5t-219.5 -261.5t-331 -90q-184 0 -327 90.5t-222 258.5t-81 390v112q0 226 78.5 399t221.5 265t328 92q188 0 331.5 -91t221 -263.5t77.5 -401.5v-98zM1179 833q0 278 -111.5 426.5t-312.5 148.5q-195 0 -307.5 -148.5t-115.5 -413.5v-114
q0 -270 113.5 -424t311.5 -154q200 0 309.5 145.5t112.5 417.5v116zM1140 1951q0 -116 -66 -188t-165 -72q-44 0 -76.5 10.5t-84.5 44t-75 40.5t-53 7q-44 0 -75.5 -34t-31.5 -86l-133 7q0 115 65 190t165 75q38 0 68 -10.5t81.5 -41.5t79 -41t60.5 -10q46 0 77 36.5
t31 85.5z" />
    <glyph glyph-name="Odieresis" unicode="&#xd6;" horiz-adv-x="1513" 
d="M1385 732q0 -230 -77.5 -401.5t-219.5 -261.5t-331 -90q-184 0 -327 90.5t-222 258.5t-81 390v112q0 226 78.5 399t221.5 265t328 92q188 0 331.5 -91t221 -263.5t77.5 -401.5v-98zM1179 833q0 278 -111.5 426.5t-312.5 148.5q-195 0 -307.5 -148.5t-115.5 -413.5v-114
q0 -270 113.5 -424t311.5 -154q200 0 309.5 145.5t112.5 417.5v116zM414 1808q0 48 29.5 81t87.5 33t88 -33t30 -81t-30 -80.5t-88 -32.5t-87.5 32.5t-29.5 80.5zM875 1806q0 48 30 81.5t88 33.5t88 -33.5t30 -82t-30 -80.5t-88 -32t-88 32t-30 81z" />
    <glyph glyph-name="multiply" unicode="&#xd7;" horiz-adv-x="1173" 
d="M96 353l354 361l-352 360l128 132l353 -360l353 360l128 -132l-352 -360l354 -361l-127 -132l-356 362l-356 -362z" />
    <glyph glyph-name="Oslash" unicode="&#xd8;" horiz-adv-x="1513" 
d="M1385 732q0 -230 -77.5 -401.5t-219.5 -261.5t-331 -90q-183 0 -324 88l-104 -167h-153l155 248q-204 206 -204 593v89q0 226 78.5 399t221.5 265t328 92q230 0 389 -135l111 178h151l-171 -274q148 -201 150 -517v-106zM332 732q0 -263 105 -414l606 971
q-110 119 -288 119q-195 0 -307.5 -148.5t-115.5 -413.5v-114zM1179 833q0 195 -60 336l-589 -947q97 -68 227 -68q200 0 309.5 145.5t112.5 417.5v116z" />
    <glyph glyph-name="Ugrave" unicode="&#xd9;" horiz-adv-x="1427" 
d="M1283 1564v-1063q-1 -222 -139.5 -362.5t-374.5 -157.5l-55 -2q-256 0 -408.5 138.5t-155.5 380.5v1066h204v-1059q0 -170 93.5 -264t266.5 -94q175 0 268 93.5t93 263.5v1060h208zM830 1665h-170l-278 316h240z" />
    <glyph glyph-name="Uacute" unicode="&#xda;" horiz-adv-x="1427" 
d="M1283 1564v-1063q-1 -222 -139.5 -362.5t-374.5 -157.5l-55 -2q-256 0 -408.5 138.5t-155.5 380.5v1066h204v-1059q0 -170 93.5 -264t266.5 -94q175 0 268 93.5t93 263.5v1060h208zM814 1981h241l-288 -316h-160z" />
    <glyph glyph-name="Ucircumflex" unicode="&#xdb;" horiz-adv-x="1427" 
d="M1283 1564v-1063q-1 -222 -139.5 -362.5t-374.5 -157.5l-55 -2q-256 0 -408.5 138.5t-155.5 380.5v1066h204v-1059q0 -170 93.5 -264t266.5 -94q175 0 268 93.5t93 263.5v1060h208zM1042 1689v-11h-164l-161 183l-161 -183h-164v13l264 292h121z" />
    <glyph glyph-name="Udieresis" unicode="&#xdc;" horiz-adv-x="1427" 
d="M1283 1564v-1063q-1 -222 -139.5 -362.5t-374.5 -157.5l-55 -2q-256 0 -408.5 138.5t-155.5 380.5v1066h204v-1059q0 -170 93.5 -264t266.5 -94q175 0 268 93.5t93 263.5v1060h208zM372 1806q0 48 29.5 81t87.5 33t88 -33t30 -81.5t-30 -80.5t-88 -32t-87.5 32t-29.5 81z
M834 1804q0 48 29.5 81.5t87.5 33.5t88 -33.5t30 -82t-30 -80.5t-88 -32t-87.5 32t-29.5 81z" />
    <glyph glyph-name="Yacute" unicode="&#xdd;" horiz-adv-x="1321" 
d="M658 779l409 785h234l-539 -981v-583h-207v583l-539 981h236zM761 1981h240l-288 -316h-160z" />
    <glyph glyph-name="Thorn" unicode="&#xde;" horiz-adv-x="1300" 
d="M378 1564v-315h300q158 0 276 -56t182 -160.5t64 -239.5q0 -209 -142 -333t-386 -124h-294v-336h-200v1564h200zM378 1086v-586h298q152 0 238 81t86 210q0 132 -86 213t-232 82h-304z" />
    <glyph glyph-name="germandbls" unicode="&#xdf;" horiz-adv-x="1308" 
d="M348 0h-199v1193q0 224 111.5 350t310.5 126q194 0 299.5 -96t105.5 -267q0 -134 -68.5 -243t-68.5 -183q0 -55 40.5 -106t141 -128.5t147 -150.5t46.5 -154q0 -171 -109 -266.5t-305 -95.5q-87 0 -184 23.5t-138 53.5l46 166q53 -34 125.5 -57.5t129.5 -23.5
q115 0 175.5 50.5t60.5 138.5q0 56 -39.5 107.5t-141 130.5t-148.5 153t-47 161q0 96 74.5 207t74.5 201q0 101 -55.5 158.5t-150.5 57.5q-234 0 -234 -315v-1191z" />
    <glyph glyph-name="agrave" unicode="&#xe0;" horiz-adv-x="1197" 
d="M868 0q-17 34 -28 122q-139 -143 -331 -143q-172 0 -282 97t-110 246q0 182 138 282.5t388 100.5h194v91q0 104 -62.5 166t-183.5 62q-107 0 -178.5 -54t-71.5 -130h-200q0 87 61.5 168t167.5 128.5t233 47.5q201 0 314.5 -100.5t118.5 -276.5v-535q0 -160 40 -255v-17
h-208zM538 151q94 0 177.5 48.5t121.5 125.5v239h-156q-365 0 -365 -214q0 -93 62 -146t160 -53zM738 1332h-171l-277 316h240z" />
    <glyph glyph-name="aacute" unicode="&#xe1;" horiz-adv-x="1197" 
d="M868 0q-17 34 -28 122q-139 -143 -331 -143q-172 0 -282 97t-110 246q0 182 138 282.5t388 100.5h194v91q0 104 -62.5 166t-183.5 62q-107 0 -178.5 -54t-71.5 -130h-200q0 87 61.5 168t167.5 128.5t233 47.5q201 0 314.5 -100.5t118.5 -276.5v-535q0 -160 40 -255v-17
h-208zM538 151q94 0 177.5 48.5t121.5 125.5v239h-156q-365 0 -365 -214q0 -93 62 -146t160 -53zM722 1648h241l-288 -316h-160z" />
    <glyph glyph-name="acircumflex" unicode="&#xe2;" horiz-adv-x="1197" 
d="M868 0q-17 34 -28 122q-139 -143 -331 -143q-172 0 -282 97t-110 246q0 182 138 282.5t388 100.5h194v91q0 104 -62.5 166t-183.5 62q-107 0 -178.5 -54t-71.5 -130h-200q0 87 61.5 168t167.5 128.5t233 47.5q201 0 314.5 -100.5t118.5 -276.5v-535q0 -160 40 -255v-17
h-208zM538 151q94 0 177.5 48.5t121.5 125.5v239h-156q-365 0 -365 -214q0 -93 62 -146t160 -53zM950 1356v-11h-165l-161 183l-160 -183h-164v13l264 292h120z" />
    <glyph glyph-name="atilde" unicode="&#xe3;" horiz-adv-x="1197" 
d="M868 0q-17 34 -28 122q-139 -143 -331 -143q-172 0 -282 97t-110 246q0 182 138 282.5t388 100.5h194v91q0 104 -62.5 166t-183.5 62q-107 0 -178.5 -54t-71.5 -130h-200q0 87 61.5 168t167.5 128.5t233 47.5q201 0 314.5 -100.5t118.5 -276.5v-535q0 -160 40 -255v-17
h-208zM538 151q94 0 177.5 48.5t121.5 125.5v239h-156q-365 0 -365 -214q0 -93 62 -146t160 -53zM1005 1616q0 -116 -66 -188t-164 -72q-45 0 -77 10.5t-84 44t-75 40.5t-53 7q-44 0 -75.5 -34t-31.5 -87l-133 8q0 115 65 190t165 75q37 0 67.5 -10.5t82 -42t79 -41
t60.5 -9.5q46 0 76.5 36.5t30.5 85.5z" />
    <glyph glyph-name="adieresis" unicode="&#xe4;" horiz-adv-x="1197" 
d="M868 0q-17 34 -28 122q-139 -143 -331 -143q-172 0 -282 97t-110 246q0 182 138 282.5t388 100.5h194v91q0 104 -62.5 166t-183.5 62q-107 0 -178.5 -54t-71.5 -130h-200q0 87 61.5 168t167.5 128.5t233 47.5q201 0 314.5 -100.5t118.5 -276.5v-535q0 -160 40 -255v-17
h-208zM538 151q94 0 177.5 48.5t121.5 125.5v239h-156q-365 0 -365 -214q0 -93 62 -146t160 -53zM279 1473q0 48 29.5 81t87.5 33t88.5 -33t30.5 -81.5t-30.5 -80.5t-88.5 -32t-87.5 32t-29.5 81zM741 1471q0 48 29.5 81.5t87.5 33.5t88 -33.5t30 -82t-30 -80.5t-88 -32
t-87.5 32t-29.5 81z" />
    <glyph glyph-name="aring" unicode="&#xe5;" horiz-adv-x="1197" 
d="M868 0q-17 34 -28 122q-139 -143 -331 -143q-172 0 -282 97t-110 246q0 182 138 282.5t388 100.5h194v91q0 104 -62.5 166t-183.5 62q-107 0 -178.5 -54t-71.5 -130h-200q0 87 61.5 168t167.5 128.5t233 47.5q201 0 314.5 -100.5t118.5 -276.5v-535q0 -160 40 -255v-17
h-208zM538 151q94 0 177.5 48.5t121.5 125.5v239h-156q-365 0 -365 -214q0 -93 62 -146t160 -53zM855 1524q0 -93 -66.5 -156t-164.5 -63q-99 0 -165 63.5t-66 156t66 158t165 65.5t165 -65.5t66 -158.5zM500 1524q0 -50 35.5 -86.5t88.5 -36.5q52 0 88.5 35.5t36.5 88
t-36 89.5t-89 37q-54 0 -89 -37.5t-35 -89.5z" />
    <glyph glyph-name="ae" unicode="&#xe6;" horiz-adv-x="1857" 
d="M1356 -21q-281 0 -427 193q-70 -93 -191 -143t-273 -50q-179 0 -280 92.5t-101 255.5q0 168 122 261.5t359 93.5h240v91q0 115 -59.5 181.5t-170.5 66.5q-113 0 -188 -59.5t-75 -146.5l-198 21q0 153 130 250.5t331 97.5q123 0 217.5 -44.5t148.5 -134.5q68 85 161.5 132
t205.5 47q226 0 350.5 -138t124.5 -389v-123h-782q8 -189 101.5 -291.5t253.5 -102.5q159 0 289 81l50 34l69 -147q-170 -129 -408 -129zM504 140q77 0 162 39.5t139 97.5v255h-245q-126 -2 -201 -61.5t-75 -148.5q0 -82 56.5 -132t163.5 -50zM1308 1021q-123 0 -203 -92
t-98 -241h577v33q0 142 -71.5 221t-204.5 79z" />
    <glyph glyph-name="ccedilla" unicode="&#xe7;" horiz-adv-x="1152" 
d="M617 141q106 0 185.5 64.5t88.5 160.5h188q-6 -100 -69.5 -190t-169 -143.5t-223.5 -53.5q-238 0 -378 158t-140 433v34q0 169 62 301.5t179 205.5t276 73q195 0 324.5 -117t138.5 -304h-188q-9 112 -86 185t-189 73q-152 0 -235 -109.5t-83 -315.5v-37
q0 -201 82.5 -309.5t236.5 -108.5zM649 -10l-13 -56q164 -29 164 -185q0 -105 -86 -165.5t-239 -60.5l-8 115q85 0 132 28t47 78q0 48 -34.5 70.5t-139.5 31.5l34 144h143z" />
    <glyph glyph-name="egrave" unicode="&#xe8;" horiz-adv-x="1166" 
d="M633 -21q-237 0 -385 155t-148 415v36q0 173 66 309t184.5 213t257.5 77q227 0 352.5 -149.5t125.5 -427.5v-83h-787q4 -172 100 -277.5t244 -105.5q106 0 179 43t128 114l121 -95q-146 -224 -438 -224zM608 1021q-120 0 -202 -88t-101 -245h582v15q-8 151 -81 234.5
t-198 83.5zM721 1332h-171l-277 316h239z" />
    <glyph glyph-name="eacute" unicode="&#xe9;" horiz-adv-x="1166" 
d="M633 -21q-237 0 -385 155t-148 415v36q0 173 66 309t184.5 213t257.5 77q227 0 352.5 -149.5t125.5 -427.5v-83h-787q4 -172 100 -277.5t244 -105.5q106 0 179 43t128 114l121 -95q-146 -224 -438 -224zM608 1021q-120 0 -202 -88t-101 -245h582v15q-8 151 -81 234.5
t-198 83.5zM705 1648h240l-288 -316h-160z" />
    <glyph glyph-name="ecircumflex" unicode="&#xea;" horiz-adv-x="1166" 
d="M633 -21q-237 0 -385 155t-148 415v36q0 173 66 309t184.5 213t257.5 77q227 0 352.5 -149.5t125.5 -427.5v-83h-787q4 -172 100 -277.5t244 -105.5q106 0 179 43t128 114l121 -95q-146 -224 -438 -224zM608 1021q-120 0 -202 -88t-101 -245h582v15q-8 151 -81 234.5
t-198 83.5zM932 1356v-11h-164l-161 183l-160 -183h-164v13l264 292h120z" />
    <glyph glyph-name="edieresis" unicode="&#xeb;" horiz-adv-x="1166" 
d="M633 -21q-237 0 -385 155t-148 415v36q0 173 66 309t184.5 213t257.5 77q227 0 352.5 -149.5t125.5 -427.5v-83h-787q4 -172 100 -277.5t244 -105.5q106 0 179 43t128 114l121 -95q-146 -224 -438 -224zM608 1021q-120 0 -202 -88t-101 -245h582v15q-8 151 -81 234.5
t-198 83.5zM262 1473q0 48 29.5 81t87.5 33t88 -33t30 -81.5t-30 -80.5t-88 -32t-87.5 32t-29.5 81zM724 1471q0 48 29.5 81.5t87.5 33.5t88 -33.5t30 -82t-30 -80.5t-88 -32t-87.5 32t-29.5 81z" />
    <glyph glyph-name="igrave" unicode="&#xec;" horiz-adv-x="544" 
d="M366 0h-199v1162h199v-1162zM386 1331h-171l-277 316h239z" />
    <glyph glyph-name="iacute" unicode="&#xed;" horiz-adv-x="544" 
d="M366 0h-199v1162h199v-1162zM368 1647h241l-288 -316h-160z" />
    <glyph glyph-name="icircumflex" unicode="&#xee;" horiz-adv-x="544" 
d="M366 0h-199v1162h199v-1162zM597 1355v-11h-164l-161 182l-160 -182h-165v13l265 292h120z" />
    <glyph glyph-name="idieresis" unicode="&#xef;" horiz-adv-x="544" 
d="M366 0h-199v1162h199v-1162zM-73 1472q0 48 29.5 81t87.5 33t88 -33t30 -81.5t-30 -80.5t-88 -32t-87.5 32t-29.5 81zM389 1470q0 48 29.5 81t87.5 33t88 -33t30 -81.5t-30 -80.5t-88 -32t-87.5 32t-29.5 81z" />
    <glyph glyph-name="eth" unicode="&#xf0;" horiz-adv-x="1289" 
d="M881 1398q267 -284 267 -723v-100q0 -170 -62.5 -306t-178.5 -213t-260 -77q-145 0 -263.5 69t-183.5 189.5t-65 264.5q0 158 60.5 283t171.5 195t250 70q175 0 305 -123q-52 210 -203 361l-235 -159l-78 106l206 141q-141 98 -338 150l61 171q257 -58 445 -207l203 139
l78 -108zM950 682l-3 60q-35 66 -109.5 105t-173.5 39q-156 0 -243 -102.5t-87 -281.5q0 -151 89.5 -256t227.5 -105q134 0 216.5 121t82.5 319v101z" />
    <glyph glyph-name="ntilde" unicode="&#xf1;" horiz-adv-x="1214" 
d="M338 1162l7 -146q133 168 348 168q368 0 372 -416v-768h-199v769q-1 126 -57.5 186t-175.5 60q-97 0 -170 -51.5t-114 -135.5v-828h-199v1162h188zM996 1616q0 -116 -66 -188t-165 -72q-44 0 -76.5 10.5t-84.5 44t-75 40.5t-53 7q-44 0 -75 -34t-31 -87l-134 8
q0 115 65 190t165 75q38 0 68 -10.5t81.5 -42t79 -41t60.5 -9.5q46 0 77 36.5t31 85.5z" />
    <glyph glyph-name="ograve" unicode="&#xf2;" horiz-adv-x="1255" 
d="M98 592q0 171 67 307.5t187 210.5t273 74q238 0 384.5 -164.5t146.5 -437.5v-14q0 -169 -65 -304t-186 -210t-278 -75q-236 0 -382.5 164t-146.5 435v14zM298 568q0 -193 89.5 -310t239.5 -117q152 0 241 118.5t89 332.5q0 191 -90.5 310t-241.5 119q-147 0 -237 -117.5
t-90 -335.5zM732 1332h-171l-277 316h239z" />
    <glyph glyph-name="oacute" unicode="&#xf3;" horiz-adv-x="1255" 
d="M98 592q0 171 67 307.5t187 210.5t273 74q238 0 384.5 -164.5t146.5 -437.5v-14q0 -169 -65 -304t-186 -210t-278 -75q-236 0 -382.5 164t-146.5 435v14zM298 568q0 -193 89.5 -310t239.5 -117q152 0 241 118.5t89 332.5q0 191 -90.5 310t-241.5 119q-147 0 -237 -117.5
t-90 -335.5zM715 1648h241l-288 -316h-160z" />
    <glyph glyph-name="ocircumflex" unicode="&#xf4;" horiz-adv-x="1255" 
d="M98 592q0 171 67 307.5t187 210.5t273 74q238 0 384.5 -164.5t146.5 -437.5v-14q0 -169 -65 -304t-186 -210t-278 -75q-236 0 -382.5 164t-146.5 435v14zM298 568q0 -193 89.5 -310t239.5 -117q152 0 241 118.5t89 332.5q0 191 -90.5 310t-241.5 119q-147 0 -237 -117.5
t-90 -335.5zM943 1356v-11h-164l-161 183l-160 -183h-165v13l265 292h120z" />
    <glyph glyph-name="otilde" unicode="&#xf5;" horiz-adv-x="1255" 
d="M98 592q0 171 67 307.5t187 210.5t273 74q238 0 384.5 -164.5t146.5 -437.5v-14q0 -169 -65 -304t-186 -210t-278 -75q-236 0 -382.5 164t-146.5 435v14zM298 568q0 -193 89.5 -310t239.5 -117q152 0 241 118.5t89 332.5q0 191 -90.5 310t-241.5 119q-147 0 -237 -117.5
t-90 -335.5zM999 1616q0 -116 -66 -188t-165 -72q-44 0 -76 10.5t-84.5 44t-75.5 40.5t-53 7q-44 0 -75 -34t-31 -87l-133 8q0 115 65 190t164 75q38 0 68 -10.5t81.5 -42t79 -41t60.5 -9.5q47 0 77.5 36.5t30.5 85.5z" />
    <glyph glyph-name="odieresis" unicode="&#xf6;" horiz-adv-x="1255" 
d="M98 592q0 171 67 307.5t187 210.5t273 74q238 0 384.5 -164.5t146.5 -437.5v-14q0 -169 -65 -304t-186 -210t-278 -75q-236 0 -382.5 164t-146.5 435v14zM298 568q0 -193 89.5 -310t239.5 -117q152 0 241 118.5t89 332.5q0 191 -90.5 310t-241.5 119q-147 0 -237 -117.5
t-90 -335.5zM273 1473q0 48 29.5 81t87.5 33t88 -33t30 -81.5t-30 -80.5t-88 -32t-87.5 32t-29.5 81zM735 1471q0 48 29.5 81.5t87.5 33.5t88 -33.5t30 -82t-30 -80.5t-88 -32t-87.5 32t-29.5 81z" />
    <glyph glyph-name="divide" unicode="&#xf7;" horiz-adv-x="1256" 
d="M1148 645h-1072v197h1072v-197zM495 1179q0 52 30.5 86.5t92 34.5t93 -34.5t31.5 -86.5q0 -50 -31.5 -83.5t-93 -33.5t-92 33.5t-30.5 83.5zM495 302q0 51 30.5 85.5t92 34.5t93 -34.5t31.5 -85.5q0 -50 -31.5 -83.5t-93 -33.5t-92 33.5t-30.5 83.5z" />
    <glyph glyph-name="oslash" unicode="&#xf8;" horiz-adv-x="1246" 
d="M98 592q0 171 66 306.5t187 210.5t274 75q118 0 219 -45l79 159h133l-110 -221q210 -165 210 -509q0 -169 -66.5 -305.5t-187 -210t-275.5 -73.5q-111 0 -204 37l-79 -160h-133l107 218q-220 160 -220 518zM296 568q0 -208 105 -327l368 745q-66 35 -144 35
q-148 0 -238.5 -117.5t-90.5 -335.5zM956 592q0 195 -93 315l-366 -739q59 -27 130 -27q150 0 239.5 117.5t89.5 316.5v17z" />
    <glyph glyph-name="ugrave" unicode="&#xf9;" horiz-adv-x="1213" 
d="M868 115q-116 -136 -341 -136q-185 0 -282.5 107.5t-98.5 319.5v756h199v-751q0 -264 215 -264q227 0 303 170v845h198v-1162h-189zM723 1332h-171l-277 316h240z" />
    <glyph glyph-name="uacute" unicode="&#xfa;" horiz-adv-x="1213" 
d="M868 115q-116 -136 -341 -136q-185 0 -282.5 107.5t-98.5 319.5v756h199v-751q0 -264 215 -264q227 0 303 170v845h198v-1162h-189zM707 1648h240l-287 -316h-160z" />
    <glyph glyph-name="ucircumflex" unicode="&#xfb;" horiz-adv-x="1213" 
d="M868 115q-116 -136 -341 -136q-185 0 -282.5 107.5t-98.5 319.5v756h199v-751q0 -264 215 -264q227 0 303 170v845h198v-1162h-189zM935 1356v-11h-165l-161 183l-160 -183h-164v13l264 292h120z" />
    <glyph glyph-name="udieresis" unicode="&#xfc;" horiz-adv-x="1213" 
d="M868 115q-116 -136 -341 -136q-185 0 -282.5 107.5t-98.5 319.5v756h199v-751q0 -264 215 -264q227 0 303 170v845h198v-1162h-189zM264 1473q0 48 29.5 81t87.5 33t88.5 -33t30.5 -81.5t-30.5 -80.5t-88.5 -32t-87.5 32t-29.5 81zM726 1471q0 48 29.5 81.5t87.5 33.5
t88 -33.5t30 -82t-30 -80.5t-88 -32t-87.5 32t-29.5 81z" />
    <glyph glyph-name="yacute" unicode="&#xfd;" horiz-adv-x="1041" 
d="M531 291l270 871h213l-467 -1341q-109 -290 -345 -290l-38 3l-74 14v161l54 -4q101 0 157.5 40.5t92.5 149.5l44 118l-414 1149h217zM643 1648h241l-288 -316h-160z" />
    <glyph glyph-name="thorn" unicode="&#xfe;" horiz-adv-x="1268" 
d="M1142 568q0 -265 -121.5 -427t-328.5 -162q-212 0 -333 134v-560h-199v2097h199v-608q121 142 330 142t331 -158t122 -439v-19zM943 591q0 196 -83.5 310t-230.5 114q-180 0 -270 -160v-555q89 -159 273 -159q143 0 227 113t84 337z" />
    <glyph glyph-name="ydieresis" unicode="&#xff;" horiz-adv-x="1041" 
d="M531 291l270 871h213l-467 -1341q-109 -290 -345 -290l-38 3l-74 14v161l54 -4q101 0 157.5 40.5t92.5 149.5l44 118l-414 1149h217zM201 1473q0 48 29.5 81t87.5 33t88 -33t30 -81.5t-30 -80.5t-88 -32t-87.5 32t-29.5 81zM663 1471q0 48 29.5 81.5t87.5 33.5t88 -33.5
t30 -82t-30 -80.5t-88 -32t-87.5 32t-29.5 81z" />
    <glyph glyph-name="uni060C" unicode="&#x60c;" horiz-adv-x="580" 
d="M471 149q0 -46 -39 -91q-51 -57 -132 -57q-92 0 -144 69q-48 63 -48 158q0 235 238 404q20 -14 42.5 -32t48.5 -39q-189 -137 -189 -281q26 20 86 20q127 -18 137 -151z" />
    <glyph glyph-name="uni060D" unicode="&#x60d;" horiz-adv-x="662" 
d="M662 0h-111q-51 0 -96 -24t-84 -75.5t-73 -132t-62 -192.5l-152 37q75 284 189.5 430t275.5 146h113v-189z" />
    <glyph glyph-name="uni0615" unicode="&#x615;" 
d="M-340 1206v85h100l47 73v485h83v-363q38 46 84 77t103 31q33 0 64.5 -12t56.5 -37.5t40.5 -64.5t15.5 -92q0 -51 -17 -85.5t-43 -56t-58.5 -31t-63.5 -9.5h-412zM72 1291q42 0 69 23t27 74q0 58 -23.5 89.5t-67.5 31.5q-32 0 -61 -20t-56 -51.5t-51.5 -69.5t-45.5 -74
q-1 -1 -1 -3h210z" />
    <glyph glyph-name="uni061B" unicode="&#x61b;" horiz-adv-x="562" 
d="M387 125q0 -49 -38 -87q-38 -36 -87 -36q-51 0 -88 36q-37 37 -37 87q0 51 37 88t88 37q50 0 87 -37q38 -38 38 -88zM440 570q0 -46 -39 -91q-51 -57 -132 -57q-92 0 -144 69q-48 63 -48 158q0 236 184 354q20 -14 42.5 -32t48.5 -39q-135 -87 -135 -231q50 14 86 14
q137 0 137 -145z" />
    <glyph glyph-name="uni061F" unicode="&#x61f;" horiz-adv-x="1083" 
d="M594 763q100 -109 100 -315v-143h-186v143q0 137 -106 231q-49 42 -97 82t-99 80q-104 113 -104 279q0 85 40 157.5t104 126t144.5 83.5t161.5 30q199 0 317 -130q114 -131 114 -339h-186q0 282 -245 282q-43 0 -87 -15.5t-80 -43.5t-58.5 -66.5t-22.5 -83.5
q0 -133 102 -214q48 -37 94 -73t94 -71zM603 -158l-155 158l162 161l156 -161z" />
    <glyph glyph-name="uni0640" unicode="&#x640;" horiz-adv-x="414" 
d="M418 189q11 0 11 -8v-171q0 -10 -11 -10h-428q-10 0 -10 10v171q0 8 10 8h428z" />
    <glyph glyph-name="uni064B" unicode="&#x64b;" 
d="M-240 1702l480 178v-111l-480 -180v113zM-240 1933l480 178v-110l-480 -180v112z" />
    <glyph glyph-name="uni064C" unicode="&#x64c;" 
d="M-271 1661q7 11 14.5 30t12 40.5t5 42.5t-6.5 35q-4 6 -13 14.5t-24 10.5q-13 0 -26.5 -3.5t-25.5 -9t-21.5 -11t-13.5 -8.5l-58 57q3 4 15 15t32 23t46.5 20.5t56.5 7.5q35 -2 62.5 -19t43.5 -47q19 -34 19.5 -75.5t-7.5 -80.5q54 16 113 39.5t104 54.5q-13 5 -27 9.5
t-39 16.5q-44 22 -67.5 51t-32.5 59.5t-5.5 58.5t13.5 47q15 31 41 56.5t57.5 41t65.5 17.5t66 -13q62 -30 85 -104q7 -25 10 -52.5t-1.5 -58.5t-17 -65t-35.5 -71q-20 -33 -55 -60t-76 -48.5t-84 -38t-79.5 -27.5t-63 -17t-33.5 -7zM71 2062q-11 0 -25 -4.5t-27.5 -12.5
t-25.5 -19t-19 -23l-1 -10t3 -25t16.5 -32t40.5 -30q15 -9 36.5 -17t47.5 -17q3 14 6.5 32t5.5 37.5t1 39t-6 37.5q-11 27 -35 41l-8 2t-10 1z" />
    <glyph glyph-name="uni064D" unicode="&#x64d;" 
d="M-240 -680l480 178v-110l-480 -181v113zM-240 -449l480 179v-111l-480 -180v112z" />
    <glyph glyph-name="uni064E" unicode="&#x64e;" 
d="M-240 1702l480 178v-111l-480 -180v113z" />
    <glyph glyph-name="uni064F" unicode="&#x64f;" 
d="M-292 1625q24 7 61.5 18t79.5 27.5t83.5 38t73.5 50.5q-22 11 -37.5 18t-31.5 15q-45 22 -69 50.5t-33.5 58.5t-6.5 58.5t12 48.5q15 31 42 57t59 41.5t67.5 18t67.5 -13.5q65 -32 86 -104q7 -27 11 -56t-1 -62.5t-21 -72.5t-48 -84q-23 -33 -57 -59.5t-72.5 -48
t-78 -37.5t-72.5 -27.5t-57 -18t-32 -8.5zM16 2031q-12 0 -26.5 -4t-28.5 -11.5t-25.5 -18t-18.5 -23.5q-1 0 -2.5 -9.5t3 -24t18 -31.5t42.5 -32q15 -8 33.5 -16.5t52.5 -24.5q15 29 18 71.5t-7 77.5q-8 19 -23 32.5t-36 13.5z" />
    <glyph glyph-name="uni0650" unicode="&#x650;" 
d="M-240 -449l480 179v-111l-480 -180v112z" />
    <glyph glyph-name="uni0651" unicode="&#x651;" 
d="M-130 1691q-87 0 -136 48t-49 134v106h91v-106q0 -48 22 -70t72 -22q7 0 20.5 2.5t26.5 12t23 28t10 49.5v106h92v-106q0 -48 22 -70.5t73 -22.5q7 0 20 3.5t26 13t22 28t9 48.5q0 15 -3.5 36t-8.5 42t-9.5 39t-7.5 27l85 29q1 -5 7 -23.5t12 -44t11 -53.5t5 -52
q0 -47 -15 -81.5t-39.5 -57t-55 -33.5t-60.5 -11q-92 0 -140 53q-25 -27 -58 -39.5t-67 -12.5z" />
    <glyph glyph-name="uni0652" unicode="&#x652;" 
d="M-2 1671q-51 0 -92 15t-70.5 42.5t-45 67.5t-15.5 90q0 51 16 90.5t45 67.5t70 42.5t92 14.5q102 0 166 -59q63 -59 63 -154q0 -100 -63 -158q-64 -59 -166 -59zM-2 1774q49 0 81 29t32 83t-32 83.5t-81 29.5q-51 0 -82 -29.5t-31 -83.5q0 -112 113 -112z" />
    <glyph glyph-name="uni0653" unicode="&#x653;" 
d="M417 1612h-483q-63 0 -106 -5t-72.5 -20t-48 -43t-32.5 -74l-158 47q46 161 167 221q51 26 113 33.5t137 7.5h483v-167z" />
    <glyph glyph-name="uni0654" unicode="&#x654;" 
d="M-264 1500l9 127l124 37q-54 43 -74 104q-13 39 -7.5 79t25 74.5t51 60t69.5 36.5q27 9 54 9.5t52.5 -3t48.5 -11t43 -14.5l-25 -101q-17 4 -36 8t-38 6.5t-36 2t-28 -4.5q-17 -6 -31.5 -16.5t-24 -24t-12.5 -30.5t3 -37t22.5 -36.5t44.5 -25.5t67 -9t92 14l85 25
l34 -108z" />
    <glyph glyph-name="uni0655" unicode="&#x655;" 
d="M-230 -634l9 127l124 37q-54 43 -74 104q-13 39 -7.5 79t25 74.5t51 60t69.5 36.5q27 9 54 9.5t52.5 -3t48.5 -11t43 -14.5l-25 -101q-17 4 -36 8t-38 6.5t-36 2t-28 -4.5q-17 -6 -31.5 -16.5t-24 -24t-12.5 -30.5t3 -37t22.5 -36.5t44.5 -25.5t67 -9t92 14l85 25
l34 -108z" />
    <glyph glyph-name="uni0656" unicode="&#x656;" 
d="M-59 -395h116v-398h-116v398z" />
    <glyph glyph-name="uni0660" unicode="&#x660;" horiz-adv-x="1083" 
d="M544 189q-78 0 -147 30t-120.5 82t-81.5 121.5t-30 148.5q0 78 30 147t81.5 120.5t120.5 81.5t147 30q79 0 148.5 -30t121.5 -81.5t82 -120.5t30 -147q0 -79 -30 -148.5t-82 -121.5t-121.5 -82t-148.5 -30zM544 762q-39 0 -74 -15t-60.5 -41t-40.5 -60.5t-15 -74.5
t15 -75t40.5 -61.5t60.5 -41.5t74 -15q40 0 75 15t61.5 41.5t42 61.5t15.5 75t-15.5 74.5t-42 60.5t-61.5 41t-75 15z" />
    <glyph glyph-name="uni0661" unicode="&#x661;" horiz-adv-x="624" 
d="M256 1v72.5t2 77.5q2 116 2 259.5t-11.5 304.5t-40 334.5t-83.5 349.5l179 58q59 -187 89.5 -369.5t43 -351t12.5 -318t-2 -270.5q-2 -40 -2 -77v-70h-189z" />
    <glyph glyph-name="uni0662" unicode="&#x662;" horiz-adv-x="1149" 
d="M979 1455q3 -8 13 -43t21 -84t19.5 -104.5t8.5 -104.5q0 -96 -31 -166t-81 -115.5t-113 -68t-127 -22.5q-81 0 -147 26t-120 66q13 -111 19.5 -214.5t9.5 -198t3 -177.5v-153q-2 -26 -2 -50v-47h-186v97q1 121 -1 270t-16 316t-45.5 348.5t-89.5 366.5l179 58l39 -131
q0 -1 9 -30.5t28 -72.5t48.5 -93t69 -93t90 -71.5t112.5 -28.5q14 0 41.5 5t55.5 23.5t48.5 55t20.5 100.5q0 33 -6.5 74t-15.5 80t-18.5 72.5t-15.5 51.5z" />
    <glyph glyph-name="uni0663" unicode="&#x663;" horiz-adv-x="1459" 
d="M1275 1455q1 -4 10.5 -37.5t20.5 -83t20 -106.5t9 -107q0 -72 -14.5 -139t-47.5 -119t-87 -83t-134 -31q-31 0 -66 6.5t-70.5 23t-69.5 45.5t-63 74q-22 -35 -48 -60t-54 -42t-56.5 -28t-55.5 -17q-48 -11 -96 -4.5t-91 29.5q10 -100 14.5 -194t6.5 -179.5t2 -161v-139.5
v-101h-188v101q0 75 -0.5 172.5t-5.5 208t-14.5 229.5t-26.5 238t-43 233.5t-62 215.5l179 58q10 -34 19 -64t17.5 -61.5t17 -65.5t18.5 -76q11 -45 28.5 -92t43.5 -85t61 -60.5t81 -17.5q39 4 68.5 28t46.5 79t20.5 146t-9.5 230l186 18q12 -122 27.5 -215t39.5 -156
t58.5 -95.5t84.5 -32.5q32 0 52 13t30.5 37t13 58t0.5 76q-2 39 -8.5 81t-15 80.5t-16.5 70t-13 49.5z" />
    <glyph glyph-name="uni0664" unicode="&#x664;" horiz-adv-x="1049" 
d="M633 -1q-65 -4 -130.5 10t-123.5 42.5t-102.5 70t-66.5 91.5q-26 59 -22.5 127t36.5 140q28 59 73 113.5t102 102.5q-33 5 -62.5 13t-55.5 19q-54 22 -90.5 49.5t-59.5 57t-35 59t-17 55.5q-3 19 -3 43.5t6.5 53t20.5 60.5t40 66q34 45 95.5 91t131.5 86.5t138 72
t116 47.5l60 -180q-47 -16 -97 -37.5t-98 -48t-90.5 -55t-73.5 -58t-47.5 -58t-12.5 -53.5q4 -23 32 -45.5t84.5 -39.5t144 -26t211.5 -4l30 -186q-78 -24 -139.5 -57.5t-108 -71.5t-78 -77t-47.5 -73q-14 -32 -17 -61t6 -49q15 -34 60.5 -60t114.5 -36t156.5 0.5
t185.5 49.5l71 -175q-100 -40 -185 -54.5t-153 -14.5z" />
    <glyph glyph-name="uni0665" unicode="&#x665;" horiz-adv-x="1324" 
d="M658 -1q-123 -3 -228 32t-182.5 102.5t-121 164.5t-43.5 219q0 87 30 179t80.5 188.5t115 196.5t133.5 204l78 115l74 -35q144 -71 260.5 -172t201.5 -226q76 -112 116 -227.5t40 -222.5q0 -125 -39.5 -222t-112 -163.5t-174.5 -100.5t-228 -32zM584 1156
q-61 -91 -117.5 -178t-99.5 -168.5t-69 -155t-26 -137.5q0 -78 26 -139.5t75.5 -104t121 -65.5t163.5 -23q87 0 155.5 19.5t115 60t71 103.5t24.5 149q0 78 -32.5 168t-92.5 177q-21 32 -50.5 68.5t-68.5 75t-87.5 77t-108.5 73.5z" />
    <glyph glyph-name="uni0666" unicode="&#x666;" horiz-adv-x="1184" 
d="M900 -34q-40 131 -70 288.5t-50 327.5q-19 172 -22.5 338.5t4.5 322.5q-60 -10 -140.5 -18t-173 -8.5t-193 11t-199.5 40.5l53 182q85 -25 172 -34.5t168.5 -9.5t153 7t124.5 15t84 15t32 7l117 -102q-12 -118 -14.5 -240t3 -243t17.5 -238t29.5 -225.5t38.5 -205.5
t45 -177z" />
    <glyph glyph-name="uni0667" unicode="&#x667;" horiz-adv-x="1366" 
d="M1295 1355q-51 -60 -100.5 -136.5t-96 -166.5t-89.5 -191.5t-82 -211.5q-33 -93 -59.5 -186t-45 -178t-28.5 -159t-10 -128h-188q0 54 -10 128t-29 159t-45 178t-59 186q-39 110 -82.5 211.5t-90.5 191.5t-96 166.5t-99 136.5l145 122q55 -67 109 -151t105 -181
t98 -206.5t88 -227.5q17 -47 31.5 -93t28.5 -93q14 47 28.5 93t31.5 93q41 118 87.5 227.5t97.5 206.5t105 181t110 151z" />
    <glyph glyph-name="uni0668" unicode="&#x668;" horiz-adv-x="1376" 
d="M929 776q38 -111 81 -212.5t89.5 -191t96 -166t99.5 -136.5l-145 -120q-111 134 -214 330t-186 434q-16 47 -31 94t-29 92q-12 -45 -27.5 -92t-32.5 -94q-81 -238 -184 -434t-214 -330l-147 120q51 60 100.5 136.5t96 166t89.5 191t82 212.5q33 94 59 187t45 178
t29 158.5t10 127.5h188q0 -54 10.5 -127.5t29.5 -158.5t45.5 -178t59.5 -187z" />
    <glyph glyph-name="uni0669" unicode="&#x669;" horiz-adv-x="982" 
d="M717 -51q-18 49 -31 128t-22.5 175t-15.5 202.5t-9 210.5h-173q-18 0 -44 2.5t-57 9t-64 19.5t-65 34q-27 18 -54.5 45t-50 66t-37 91t-14.5 120q0 64 10.5 112t27 85t37 63.5t40.5 47.5q52 54 120 82t144 28q69 0 128.5 -21.5t104.5 -63.5q66 -59 98.5 -145t32.5 -214
q0 -191 5 -356.5t14 -297t21.5 -223t28.5 -133.5zM637 854q-2 50 -2.5 93t-0.5 79q0 68 -10 113.5t-25.5 74t-35.5 42.5t-39.5 20t-36.5 6h-28q-90 0 -140 -57t-50 -173q0 -120 71 -164q18 -12 37.5 -19t37 -10t31 -4t20.5 -1h171z" />
    <glyph glyph-name="uni066A" unicode="&#x66a;" horiz-adv-x="1174" 
d="M785 1569h199l-595 -1570h-197zM916 6l-203 203l202 201l203 -203zM285 1126l-203 203l202 201l203 -203z" />
    <glyph glyph-name="uni066B" unicode="&#x66b;" horiz-adv-x="685" 
d="M433 852h144l-481 -1084h-145z" />
    <glyph glyph-name="uni066C" unicode="&#x66c;" horiz-adv-x="513" 
d="M214 -5q-32 0 -59.5 12t-48.5 33t-33 48.5t-12 59.5q0 36 13.5 64.5t37 49t54 31t63.5 10.5q93 2 146 -66q49 -62 50 -158q10 -282 -333 -454l-58 105q258 124 254 284q-34 -19 -74 -19z" />
    <glyph glyph-name="uni066D" unicode="&#x66d;" horiz-adv-x="1126" 
d="M215 727l240 331l-373 23l29 193l383 -88l-35 370h205l-26 -370l380 88l26 -193l-352 -33l219 -321l-178 -96l-160 359l-174 -359z" />
    <glyph glyph-name="uni066E" unicode="&#x66e;" horiz-adv-x="2103" 
d="M1965 767q22 -87 40 -183t21 -204q2 -90 -23.5 -160.5t-72 -119.5t-111.5 -75t-143 -26l-603 -2q-135 0 -265.5 0.5t-244.5 15t-205.5 49t-147.5 100.5q-82 96 -82 244q0 51 7.5 102.5t16.5 94t16.5 70t8.5 29.5l180 -55l-6.5 -23t-14 -58t-14 -77.5t-6.5 -82.5
q0 -81 45.5 -126.5t139 -66.5t236 -25t336.5 -3l603 3q40 0 70.5 14t50.5 39t30 59.5t8 74.5q-2 94 -18.5 180t-36.5 167l185 45v0z" />
    <glyph glyph-name="uni066F" unicode="&#x66f;" horiz-adv-x="1620" 
d="M794 -554h-100q-77 0 -148 17.5t-133.5 50.5t-114 81.5t-89.5 110.5q-54 85 -78 188.5t-17.5 221.5t43.5 247.5t105 267.5l170 -81q-56 -116 -88.5 -222.5t-40.5 -201.5t8 -176t57 -145q50 -81 135 -125.5t191 -44.5h90v2q151 0 254 23t163 71q52 42 76.5 107t24.5 162
h-184q-70 0 -142 21t-130.5 69t-95.5 125.5t-37 189.5q0 66 11.5 119.5t29 95.5t38.5 73t41 53q55 55 126 85t152 30q71 0 133 -22t111 -66q135 -126 135 -395v-378q0 -142 -41.5 -244.5t-128.5 -171.5t-214.5 -102t-311.5 -34v-2zM1111 672q-99 0 -154 -70t-55 -197
q0 -129 78 -179q19 -12 39 -19.5t39 -11t34.5 -5t25.5 -1.5h184v189q0 73 -11 123.5t-28 83.5t-38.5 50.5t-42.5 25.5t-40 9.5t-31 1.5z" />
    <glyph glyph-name="uni0670" unicode="&#x670;" 
d="M-59 2058h116v-397h-116v397z" />
    <glyph glyph-name="uni06C2" unicode="&#x6c2;" horiz-adv-x="1029" 
d="M525 0q-90 0 -165.5 27.5t-131 76t-86.5 115t-31 144.5q0 100 26.5 176.5t67.5 138t90 112.5t94 100l-62 69l140 127q52 -58 107.5 -116.5t108.5 -118t99.5 -119t81.5 -119t55.5 -119t19.5 -117.5q-1 -81 -32.5 -151.5t-91.5 -124.5q-56 -48 -130.5 -74.5t-159.5 -26.5z
M512 755q-38 -43 -76 -85.5t-68 -89.5t-49 -100t-19 -117q0 -45 19.5 -77.5t51 -54t72 -32t82.5 -10.5q51 0 92.5 13.5t71 38.5t45.5 59.5t16 76.5q0 50 -21 98.5t-54.5 95.5t-76.5 93t-86 91zM185 1168l9 127l124 37q-54 43 -74 104q-13 39 -7.5 79t25 74.5t51 60
t69.5 36.5q27 9 54 9.5t52.5 -3t48.5 -11t43 -14.5l-25 -101q-17 4 -36 8t-38 6.5t-36 2t-28 -4.5q-17 -6 -31.5 -16.5t-24 -24t-12.5 -30.5t3 -37t22.5 -36.5t44.5 -25.5t67 -9t92 14l85 25l34 -108z" />
    <glyph glyph-name="uni06C3" unicode="&#x6c3;" horiz-adv-x="1012" 
d="M525 0q-90 0 -165.5 27.5t-131 76t-86.5 115t-31 144.5q0 100 26.5 176.5t67.5 138t90 112.5t94 100l-62 69l140 127q52 -58 107.5 -116.5t108.5 -118t99.5 -119t81.5 -119t55.5 -119t19.5 -117.5q-1 -81 -32.5 -151.5t-91.5 -124.5q-56 -48 -130.5 -74.5t-159.5 -26.5z
M512 755q-38 -43 -76 -85.5t-68 -89.5t-49 -100t-19 -117q0 -45 19.5 -77.5t51 -54t72 -32t82.5 -10.5q51 0 92.5 13.5t71 38.5t45.5 59.5t16 76.5q0 50 -21 98.5t-54.5 95.5t-76.5 93t-86 91zM640 1170l-158 160l156 162l162 -162zM257 1172l-158 160l156 162l162 -162z
" />
    <glyph glyph-name="uni06D5" unicode="&#x6d5;" horiz-adv-x="1018" 
d="M525 0q-90 0 -165.5 27.5t-131 76t-86.5 115t-31 144.5q0 100 26.5 176.5t67.5 138t90 112.5t94 100l-62 69l140 127q52 -58 107.5 -116.5t108.5 -118t99.5 -119t81.5 -119t55.5 -119t19.5 -117.5q-1 -81 -32.5 -151.5t-91.5 -124.5q-56 -48 -130.5 -74.5t-159.5 -26.5z
M512 755q-38 -43 -76 -85.5t-68 -89.5t-49 -100t-19 -117q0 -45 19.5 -77.5t51 -54t72 -32t82.5 -10.5q51 0 92.5 13.5t71 38.5t45.5 59.5t16 76.5q0 50 -21 98.5t-54.5 95.5t-76.5 93t-86 91z" />
    <glyph glyph-name="uni06F0" unicode="&#x6f0;" horiz-adv-x="1051" 
d="M544 189q-78 0 -147 30t-120.5 82t-81.5 121.5t-30 148.5q0 78 30 147t81.5 120.5t120.5 81.5t147 30q79 0 148.5 -30t121.5 -81.5t82 -120.5t30 -147q0 -79 -30 -148.5t-82 -121.5t-121.5 -82t-148.5 -30zM544 762q-39 0 -74 -15t-60.5 -41t-40.5 -60.5t-15 -74.5
t15 -75t40.5 -61.5t60.5 -41.5t74 -15q40 0 75 15t61.5 41.5t42 61.5t15.5 75t-15.5 74.5t-42 60.5t-61.5 41t-75 15z" />
    <glyph glyph-name="uni06F1" unicode="&#x6f1;" horiz-adv-x="596" 
d="M256 1v72.5t2 77.5q2 116 2 259.5t-11.5 304.5t-40 334.5t-83.5 349.5l179 58q59 -187 89.5 -369.5t43 -351t12.5 -318t-2 -270.5q-2 -40 -2 -77v-70h-189z" />
    <glyph glyph-name="uni06F2" unicode="&#x6f2;" horiz-adv-x="1138" 
d="M979 1455q3 -8 13 -43t21 -84t19.5 -104.5t8.5 -104.5q0 -96 -31 -166t-81 -115.5t-113 -68t-127 -22.5q-81 0 -147 26t-120 66q13 -111 19.5 -214.5t9.5 -198t3 -177.5v-153q-2 -26 -2 -50v-47h-186v97q1 121 -1 270t-16 316t-45.5 348.5t-89.5 366.5l179 58l39 -131
q0 -1 9 -30.5t28 -72.5t48.5 -93t69 -93t90 -71.5t112.5 -28.5q14 0 41.5 5t55.5 23.5t48.5 55t20.5 100.5q0 33 -6.5 74t-15.5 80t-18.5 72.5t-15.5 51.5z" />
    <glyph glyph-name="uni06F3" unicode="&#x6f3;" horiz-adv-x="1439" 
d="M1275 1455q1 -4 10.5 -37.5t20.5 -83t20 -106.5t9 -107q0 -72 -14.5 -139t-47.5 -119t-87 -83t-134 -31q-31 0 -66 6.5t-70.5 23t-69.5 45.5t-63 74q-22 -35 -48 -60t-54 -42t-56.5 -28t-55.5 -17q-48 -11 -96 -4.5t-91 29.5q10 -100 14.5 -194t6.5 -179.5t2 -161v-139.5
v-101h-188v101q0 75 -0.5 172.5t-5.5 208t-14.5 229.5t-26.5 238t-43 233.5t-62 215.5l179 58q10 -34 19 -64t17.5 -61.5t17 -65.5t18.5 -76q11 -45 28.5 -92t43.5 -85t61 -60.5t81 -17.5q39 4 68.5 28t46.5 79t20.5 146t-9.5 230l186 18q12 -122 27.5 -215t39.5 -156
t58.5 -95.5t84.5 -32.5q32 0 52 13t30.5 37t13 58t0.5 76q-2 39 -8.5 81t-15 80.5t-16.5 70t-13 49.5z" />
    <glyph glyph-name="uni06F4" unicode="&#x6f4;" horiz-adv-x="1366" 
d="M1187 727q-60 -12 -151 -23.5t-199 -11.5q-57 0 -116 4.5t-116.5 16t-113 29.5t-105.5 45q10 -102 16 -198t8 -183.5t2 -165.5t-1 -143v-97h-188v97q1 95 0.5 207t-7 237.5t-21.5 261.5t-43 278q-14 81 -34 158.5t-47 158.5l182 58q22 -74 40 -152t43 -175
q13 -51 32 -84.5t44.5 -56t57 -37t68.5 -26.5q-19 38 -30 86.5t-11 108.5q0 85 33 152.5t86 115t120 73t135 25.5q51 0 95.5 -12.5t85.5 -32t81 -44.5t81 -49l-94 -163q-31 19 -63.5 39t-64.5 36t-63 26.5t-58 10.5q-33 0 -68 -12t-63.5 -35t-46.5 -55.5t-18 -74.5
q0 -57 21 -98.5t56 -67.5q37 -28 89 -41.5t107.5 -16.5t110.5 2t98 13q36 6 64 14l46 -182q-2 -2 -23 -6.5t-57 -9.5z" />
    <glyph glyph-name="uni06F5" unicode="&#x6f5;" horiz-adv-x="1376" 
d="M554 1509q6 -4 39.5 -31.5t85 -74.5t115.5 -111t130 -141.5t128.5 -166.5t111.5 -185.5t78.5 -198.5t29.5 -206q0 -65 -12 -115.5t-31 -89t-42.5 -66t-45.5 -45.5q-32 -27 -64.5 -42.5t-62 -23.5t-53 -10t-36.5 -2q-147 0 -237 88q-16 -17 -37.5 -33t-50 -28.5
t-63.5 -20.5t-77 -8q-99 0 -177 43.5t-127 124.5q-22 37 -35 73.5t-19.5 68t-8 55.5t-1.5 35q0 94 23 185.5t60 177t84.5 163.5t96.5 145t95.5 121t82.5 91q-42 37 -67.5 58t-27.5 21zM1021 223q62 52 62 171q0 69 -18 138.5t-48.5 137.5t-71.5 133.5t-87 126.5t-94.5 116.5
t-94.5 103.5q-31 -33 -72 -80t-84 -105t-84.5 -125.5t-74.5 -140t-53 -149t-20 -152.5q0 -10 2 -25.5t6 -34t11 -38t17 -37.5q25 -38 58.5 -57t84.5 -19q43 0 64.5 12t32.5 24q21 25 30 62.5t11 75.5t-1 71.5t-6 50.5l186 35l4 -28t5 -51.5t1.5 -68t-7.5 -78.5q3 -8 7.5 -21
t12.5 -27q39 -55 125 -55q20 0 46.5 7.5t49.5 26.5z" />
    <glyph glyph-name="uni06F6" unicode="&#x6f6;" horiz-adv-x="1136" 
d="M1050 999l-79 -74q-9 -10 -42 -50t-81.5 -103.5t-108.5 -149t-123.5 -187t-126.5 -217t-116 -238.5l-172 76q80 184 175 346.5t184 292.5q-45 -6 -93 -3t-94 16.5t-88.5 38t-76.5 61.5q-57 62 -78.5 134.5t-14.5 143.5t39 135t81 111q38 34 79.5 55t86 34.5t90 23
t92.5 19.5l41 -184q-35 -6 -73 -13.5t-73 -17.5t-65 -23.5t-49 -31.5q-25 -23 -41.5 -55t-20.5 -67t6 -70t38 -65q9 -9 23.5 -21t35 -22t47 -16t58.5 -3q73 4 155.5 52.5t174.5 133.5l83 76z" />
    <glyph glyph-name="uni06F7" unicode="&#x6f7;" horiz-adv-x="1346" 
d="M1295 1355q-51 -60 -100.5 -136.5t-96 -166.5t-89.5 -191.5t-82 -211.5q-33 -93 -59.5 -186t-45 -178t-28.5 -159t-10 -128h-188q0 54 -10 128t-29 159t-45 178t-59 186q-39 110 -82.5 211.5t-90.5 191.5t-96 166.5t-99 136.5l145 122q55 -67 109 -151t105 -181
t98 -206.5t88 -227.5q17 -47 31.5 -93t28.5 -93q14 47 28.5 93t31.5 93q41 118 87.5 227.5t97.5 206.5t105 181t110 151z" />
    <glyph glyph-name="uni06F8" unicode="&#x6f8;" horiz-adv-x="1356" 
d="M929 776q38 -111 81 -212.5t89.5 -191t96 -166t99.5 -136.5l-145 -120q-111 134 -214 330t-186 434q-16 47 -31 94t-29 92q-12 -45 -27.5 -92t-32.5 -94q-81 -238 -184 -434t-214 -330l-147 120q51 60 100.5 136.5t96 166t89.5 191t82 212.5q33 94 59 187t45 178
t29 158.5t10 127.5h188q0 -54 10.5 -127.5t29.5 -158.5t45.5 -178t59.5 -187z" />
    <glyph glyph-name="uni06F9" unicode="&#x6f9;" horiz-adv-x="1072" 
d="M757 -51q-18 49 -31 128t-22.5 175t-15.5 202.5t-9 210.5h-173q-18 0 -44 2.5t-57 9t-64 19.5t-65 34q-27 18 -54.5 45t-50 66t-37 91t-14.5 120q0 64 10.5 112t27 85t37 63.5t40.5 47.5q52 54 120 82t144 28q69 0 128.5 -21.5t104.5 -63.5q66 -59 98.5 -145t32.5 -214
q0 -191 5 -356.5t14 -297t21.5 -223t28.5 -133.5zM677 854q-2 50 -2.5 93t-0.5 79q0 68 -10 113.5t-25.5 74t-35.5 42.5t-39.5 20t-36.5 6h-28q-90 0 -140 -57t-50 -173q0 -120 71 -164q18 -12 37.5 -19t37 -10t31 -4t20.5 -1h171z" />
    <glyph glyph-name="uni200B" unicode="&#x200b;" 
 />
    <glyph glyph-name="uniFD3E" unicode="&#xfd3e;" horiz-adv-x="616" 
d="M76 561q0 266 80 496t227 405l126 -85q-69 -104 -118 -199t-80.5 -191t-46 -199.5t-14.5 -225.5q0 -101 16.5 -207.5t48.5 -210t78.5 -199.5t106.5 -175l-117 -94q-148 171 -227.5 396.5t-79.5 488.5z" />
    <glyph glyph-name="uniFD3F" unicode="&#xfd3f;" horiz-adv-x="616" 
d="M535 561q0 -266 -77.5 -491t-224.5 -394l-125 79q61 82 107 179.5t76.5 202t45.5 213t15 213.5q0 122 -12.5 224t-41 195.5t-74 186t-111.5 194.5l120 99q146 -174 224 -403t78 -498z" />
    <glyph glyph-name="feh_dotless.isol" horiz-adv-x="2127" 
d="M1057 -3q-102 0 -193 0.5t-171.5 4.5t-150.5 12.5t-129 24.5q-143 39 -215 123q-82 92 -82 244q0 51 7.5 102.5t16.5 94t16.5 70t8.5 29.5l180 -55l-6.5 -23t-14 -58t-14 -77.5t-6.5 -82.5t8.5 -69.5t27 -51t48.5 -37t74 -27.5q102 -27 251 -31.5t344 -4.5h120
q56 0 130 0.5t159 0.5q75 0 129.5 7.5t93.5 19.5t63.5 28.5t39 34.5t20.5 36.5t8 35.5q-32 0 -71 0.5t-80 0.5q-75 0 -149.5 14t-134.5 53t-97.5 107t-37.5 176q0 81 27.5 151t76.5 122.5t117 82.5t149 30q111 0 186 -48.5t120.5 -128t64.5 -181t19 -207.5v-137
q0 -114 -45 -188.5t-120.5 -118.5t-174 -61.5t-204.5 -17.5h-409zM1620 897q-34 0 -66.5 -11.5t-58 -36t-41.5 -62t-16 -88.5q0 -38 9 -68t34.5 -51t70.5 -32t117 -11h152q-5 64 -12.5 128t-27 115.5t-57.5 84t-104 32.5z" />
    <glyph glyph-name="uni06A1.fina" horiz-adv-x="2128" 
d="M1024 162q27 0 75 1.5t101 4.5t102.5 8t80.5 13q-33 30 -56.5 66t-38.5 75.5t-22 82t-7 84.5q0 73 30.5 140t84 117.5t125 80.5t153.5 30q86 0 154 -31.5t115 -83.5t72 -118t25 -135q0 -87 -27.5 -160t-82.5 -142q16 -1 37.5 -2t45 -2t46 -1.5t40.5 -0.5h73v-189h-73
q-130 0 -238.5 11.5t-196.5 36.5q-49 -18 -124.5 -32t-161 -23t-173 -14t-159.5 -5q-129 0 -247 3t-221.5 20.5t-191 56t-154.5 109.5q-43 45 -62.5 107t-19.5 137q0 51 7.5 102.5t16.5 94t16.5 70t8.5 29.5l180 -55l-6.5 -23t-14.5 -58t-14 -77.5t-6 -82.5q0 -60 30.5 -102
t82.5 -69t121 -42t147.5 -22t162 -8.5t164.5 -1.5zM1440 496q0 -50 14.5 -88.5t41 -68.5t64.5 -53t85 -40q45 17 81 39.5t61.5 52.5t39.5 69t14 90q0 34 -15.5 66.5t-42 57.5t-60.5 40t-71 15q-42 0 -80.5 -14t-68 -38t-46.5 -57t-17 -71z" />
    <glyph glyph-name="onedot.above" 
d="M-169 1314l170 172l174 -174l-172 -172z" />
    <glyph glyph-name="twodots.above" 
d="M188 1149l-158 160l156 162l162 -162zM-195 1151l-158 160l156 162l162 -162z" />
    <glyph glyph-name="threedots.above" 
d="M139 1601l-142 -139l-140 139l144 143zM188 1149l-158 160l156 162l162 -162zM-195 1151l-158 160l156 162l162 -162z" />
    <glyph glyph-name="threedots.below" 
d="M1 -780l-144 143l140 139l142 -139zM348 -345l-162 -162l-156 162l158 160zM-35 -347l-162 -162l-156 162l158 160z" />
    <glyph glyph-name="wasla" 
d="M-307 1574l19 85h129l47 73l83 122q38 46 84 77t103 31q33 0 64.5 -12t56.5 -37.5t40.5 -64.5t15.5 -92q0 -51 -17 -85.5t-43 -56t-58.5 -31t-63.5 -9.5h-460zM153 1659q42 0 69 23t27 74q0 58 -23.5 89.5t-67.5 31.5q-32 0 -61 -20t-56 -51.5t-51.5 -69.5t-45.5 -74
q-1 -1 -1 -3h210z" />
    <glyph glyph-name="beh_dotless_alt.init" horiz-adv-x="873" 
d="M675 814q2 -6 8 -32t13.5 -64.5t16.5 -85t16 -94t12 -91.5t5 -77q0 -96 -31.5 -165.5t-82 -115t-113.5 -67.5t-127 -22h-414v189h414q15 0 42.5 4.5t55 22.5t48 54t20.5 100q0 22 -3.5 55.5t-9 72t-12.5 79t-14 76.5t-13 64t-10 42z" />
    <glyph glyph-name="beh_dotless_alt.medi" horiz-adv-x="1049" 
d="M1062 189v-189h-165q-91 0 -160.5 26t-111.5 78q-104 -104 -308 -104h-330v189h330q72 0 114 14.5t63.5 36t28 48t6.5 50.5v338h188v-331q0 -37 11.5 -63t28.5 -43.5t38.5 -27.5t41.5 -15t36 -6t24 -1h165z" />
    <glyph glyph-name="onedot.below" 
d="M-169 -289l170 172l174 -174l-172 -172z" />
    <glyph glyph-name="twodots.below" 
d="M348 -283l-162 -162l-156 162l158 160zM-35 -285l-162 -162l-156 162l158 160z" />
    <glyph glyph-name="alef_alt.isol" horiz-adv-x="592" 
d="M393 0h-189v1277h189v-1277z" />
    <glyph glyph-name="alef_alt.fina" horiz-adv-x="655" 
d="M666 0q-95 1 -163.5 14.5t-116 39t-76 64t-44.5 90t-21 115.5t-5 142v809h189v-809q0 -87 5.5 -141t29 -83.5t71 -40t131.5 -11.5v-189z" />
    <glyph glyph-name="heh_ae.fina" horiz-adv-x="1268" 
d="M1275 0h-25q-160 0 -279.5 68.5t-183.5 191.5q-32 -44 -76.5 -76.5t-100.5 -57.5q-32 -13 -74 -21t-89 -8t-96.5 11t-96.5 37q-72 38 -115.5 100.5t-57.5 147.5q-19 104 12.5 201.5t109.5 178.5q137 140 387 214l-19 108l184 39q24 -100 42 -177.5t32 -139.5
q3 -12 9.5 -40t15.5 -64.5t19 -78.5t20 -82t19 -75t16 -58q20 -75 59 -120.5t85 -70t93.5 -32t84.5 -7.5h25v-189zM640 805q-99 -29 -175 -69t-125.5 -88.5t-70.5 -104.5t-10 -117q7 -42 30 -70.5t54 -45.5q22 -13 48 -18.5t52 -6t50.5 3.5t43.5 12q126 52 147 189
q7 50 2.5 89.5t-7.5 53.5z" />
    <glyph glyph-name="uni06F4.urdu" horiz-adv-x="1133" 
d="M1005 1424q5 -12 18 -34.5t27 -45.5q8 -13 16.5 -27t17.5 -29q-69 -60 -131 -132q-27 -32 -56 -70t-57 -81.5t-53 -92.5t-44 -102l-117 -37q-35 167 -114 281q-40 57 -80.5 89.5t-82.5 24.5q-37 -6 -52 -34t-15 -59q0 -25 6 -58t19.5 -76.5t36 -98t55.5 -122.5l88 -180
q36 -80 62.5 -154.5t44.5 -140t27.5 -120t10.5 -93.5l-153 -42q-15 97 -43 195t-73 204q-43 100 -82.5 189.5t-82.5 182.5q-20 42 -38.5 91.5t-30 102t-14 105t8.5 101t38.5 90t76.5 71.5q20 13 59 24t85 11.5t94 -14.5t87 -54q40 -40 71.5 -97t59.5 -127q17 46 52 99.5
t78.5 104t91 92t88.5 63.5z" />
    <glyph glyph-name="uni06F7.urdu" horiz-adv-x="1007" 
d="M878 41q-20 -5 -41 -10t-36 -7q-30 -6 -69 -10t-83 -7t-91 -4t-93 -1q-21 0 -41 0.5t-40.5 2t-42.5 4t-49 5.5q-54 5 -95.5 11t-64.5 13q-10 42 -15.5 85t-5.5 88q0 96 35 193.5t96 200.5q30 51 69.5 112t90.5 133t116.5 155.5t148.5 180.5q12 14 29 34.5t36 43t38 44.5
t35 39q12 -13 29.5 -33.5t34.5 -40.5l20 -24t21 -25l-43 -53l-72 -88l-240 -312q-78 -102 -131.5 -188t-87 -153.5t-48 -116.5t-14.5 -77q7 -3 20 -6t28 -5.5t29.5 -4.5t25.5 -3q27 -4 47.5 -6.5t39.5 -4t38.5 -2t44.5 -0.5q100 0 194 11.5t185 25.5v-186z" />
    <glyph glyph-name="Ghunna_above" 
d="M-66 1194q-87 0 -137.5 58t-50.5 167q0 117 37 209l77 -20q-8 -20 -14 -40t-9.5 -41.5t-5 -46.5t-1.5 -55q0 -157 123 -157h24q82 0 120 36t38 111v215h80v-209q0 -112 -56 -169.5t-177 -57.5h-48zM-51 1843h80v-334h-80v334z" />
    <glyph glyph-name="uni0651064B" 
d="M-220 1691q-87 0 -136 48t-49 134v106h91v-106q0 -48 22 -70t72 -22q7 0 20.5 2.5t26.5 12t23 28t10 49.5v106h92v-106q0 -48 22 -70.5t73 -22.5q7 0 20 3.5t26 13t22 28t9 48.5q0 15 -3.5 36t-8.5 42t-9.5 39t-7.5 27l85 29q1 -5 7 -23.5t12 -44t11 -53.5t5 -52
q0 -47 -15 -81.5t-39.5 -57t-55 -33.5t-60.5 -11q-92 0 -140 53q-25 -27 -58 -39.5t-67 -12.5zM-367 2183l480 178v-111l-480 -180v113zM-367 2414l480 178v-110l-480 -180v112z" />
    <glyph glyph-name="uni0654064B" 
d="M-240 2091l480 178v-111l-480 -180v113zM-240 2322l480 178v-110l-480 -180v112zM-234 1473l9 127l124 37q-54 43 -74 104q-13 39 -7.5 79t25 74.5t51 60t69.5 36.5q27 9 54 9.5t52.5 -3t48.5 -11t43 -14.5l-25 -101q-17 4 -36 8t-38 6.5t-36 2t-28 -4.5
q-17 -6 -31.5 -16.5t-24 -24t-12.5 -30.5t3 -37t22.5 -36.5t44.5 -25.5t67 -9t92 14l85 25l34 -108z" />
    <glyph glyph-name="uni0654064E" 
d="M-240 2083l480 178v-111l-480 -180v113zM-218 1462l9 127l124 37q-54 43 -74 104q-13 39 -7.5 79t25 74.5t51 60t69.5 36.5q27 9 54 9.5t52.5 -3t48.5 -11t43 -14.5l-25 -101q-17 4 -36 8t-38 6.5t-36 2t-28 -4.5q-17 -6 -31.5 -16.5t-24 -24t-12.5 -30.5t3 -37
t22.5 -36.5t44.5 -25.5t67 -9t92 14l85 25l34 -108z" />
    <glyph glyph-name="uni0654064C" 
d="M-271 2099q7 11 14.5 30t12 40.5t5 42.5t-6.5 35q-4 6 -13 14.5t-24 10.5q-13 0 -26.5 -3.5t-25.5 -9t-21.5 -11t-13.5 -8.5l-58 57q3 4 15 15t32 23t46.5 20.5t56.5 7.5q35 -2 62.5 -19t43.5 -47q19 -34 19.5 -75.5t-7.5 -80.5q54 16 113 39.5t104 54.5q-13 5 -27 9.5
t-39 16.5q-44 22 -67.5 51t-32.5 59.5t-5.5 58.5t13.5 47q15 31 41 56.5t57.5 41t65.5 17.5t66 -13q62 -30 85 -104q7 -25 10 -52.5t-1.5 -58.5t-17 -65t-35.5 -71q-20 -33 -55 -60t-76 -48.5t-84 -38t-79.5 -27.5t-63 -17t-33.5 -7zM71 2500q-11 0 -25 -4.5t-27.5 -12.5
t-25.5 -19t-19 -23l-1 -10t3 -25t16.5 -32t40.5 -30q15 -9 36.5 -17t47.5 -17q3 14 6.5 32t5.5 37.5t1 39t-6 37.5q-11 27 -35 41l-8 2t-10 1zM-264 1500l9 127l124 37q-54 43 -74 104q-13 39 -7.5 79t25 74.5t51 60t69.5 36.5q27 9 54 9.5t52.5 -3t48.5 -11t43 -14.5
l-25 -101q-17 4 -36 8t-38 6.5t-36 2t-28 -4.5q-17 -6 -31.5 -16.5t-24 -24t-12.5 -30.5t3 -37t22.5 -36.5t44.5 -25.5t67 -9t92 14l85 25l34 -108z" />
    <glyph glyph-name="uni0654064F" 
d="M-292 2080q24 7 61.5 18t79.5 27.5t83.5 38t73.5 50.5q-22 11 -37.5 18t-31.5 15q-45 22 -69 50.5t-33.5 58.5t-6.5 58.5t12 48.5q15 31 42 57t59 41.5t67.5 18t67.5 -13.5q65 -32 86 -104q7 -27 11 -56t-1 -62.5t-21 -72.5t-48 -84q-23 -33 -57 -59.5t-72.5 -48
t-78 -37.5t-72.5 -27.5t-57 -18t-32 -8.5zM16 2486q-12 0 -26.5 -4t-28.5 -11.5t-25.5 -18t-18.5 -23.5q-1 0 -2.5 -9.5t3 -24t18 -31.5t42.5 -32q15 -8 33.5 -16.5t52.5 -24.5q15 29 18 71.5t-7 77.5q-8 19 -23 32.5t-36 13.5zM-264 1500l9 127l124 37q-54 43 -74 104
q-13 39 -7.5 79t25 74.5t51 60t69.5 36.5q27 9 54 9.5t52.5 -3t48.5 -11t43 -14.5l-25 -101q-17 4 -36 8t-38 6.5t-36 2t-28 -4.5q-17 -6 -31.5 -16.5t-24 -24t-12.5 -30.5t3 -37t22.5 -36.5t44.5 -25.5t67 -9t92 14l85 25l34 -108z" />
    <glyph glyph-name="uni06540652" 
d="M-2 2056q-51 0 -92 15t-70.5 42.5t-45 67.5t-15.5 90q0 51 16 90.5t45 67.5t70 42.5t92 14.5q102 0 166 -59q63 -59 63 -154q0 -100 -63 -158q-64 -59 -166 -59zM-2 2159q49 0 81 29t32 83t-32 83.5t-81 29.5q-51 0 -82 -29.5t-31 -83.5q0 -112 113 -112zM-264 1500
l9 127l124 37q-54 43 -74 104q-13 39 -7.5 79t25 74.5t51 60t69.5 36.5q27 9 54 9.5t52.5 -3t48.5 -11t43 -14.5l-25 -101q-17 4 -36 8t-38 6.5t-36 2t-28 -4.5q-17 -6 -31.5 -16.5t-24 -24t-12.5 -30.5t3 -37t22.5 -36.5t44.5 -25.5t67 -9t92 14l85 25l34 -108z" />
    <glyph glyph-name="uni0655064D" 
d="M-240 -965l480 178v-110l-480 -181v113zM-240 -734l480 179v-111l-480 -180v112zM-230 -634l9 127l124 37q-54 43 -74 104q-13 39 -7.5 79t25 74.5t51 60t69.5 36.5q27 9 54 9.5t52.5 -3t48.5 -11t43 -14.5l-25 -101q-17 4 -36 8t-38 6.5t-36 2t-28 -4.5
q-17 -6 -31.5 -16.5t-24 -24t-12.5 -30.5t3 -37t22.5 -36.5t44.5 -25.5t67 -9t92 14l85 25l34 -108z" />
    <glyph glyph-name="uni06550650" 
d="M-240 -742l480 179v-111l-480 -180v112zM-230 -634l9 127l124 37q-54 43 -74 104q-13 39 -7.5 79t25 74.5t51 60t69.5 36.5q27 9 54 9.5t52.5 -3t48.5 -11t43 -14.5l-25 -101q-17 4 -36 8t-38 6.5t-36 2t-28 -4.5q-17 -6 -31.5 -16.5t-24 -24t-12.5 -30.5t3 -37
t22.5 -36.5t44.5 -25.5t67 -9t92 14l85 25l34 -108z" />
    <glyph glyph-name="patah.wide" horiz-adv-x="699" 
d="M0 287v162h700v-162h-700z" />
    <glyph glyph-name="hah_alt.isol" horiz-adv-x="1475" 
d="M1369 604q-2 -1 -38 -12.5t-113.5 -38t-201 -70t-300.5 -109.5q-111 -41 -188 -77.5t-126.5 -72t-75.5 -72t-36 -77t-7.5 -87.5t9.5 -104q15 -117 53 -198.5t98 -131.5t141 -72.5t182 -22.5h502v-189h-502q-143 0 -256.5 33t-196.5 104t-135 182.5t-73 269.5
q-21 160 5 269.5t96 187t182 132t263 102.5l462 150q-97 39 -194 74t-178.5 61.5t-139.5 43t-77 19.5q-17 0 -35.5 -3t-36.5 -18t-35 -46.5t-32 -88.5l-183 48q77 296 324 296q7 0 16.5 -0.5t29 -5t50.5 -14t81 -26.5t121 -43.5t170 -65.5l368 -150z" />
    <glyph glyph-name="hah_alt.fina" horiz-adv-x="1565" 
d="M1064 474l105 8q0 -87 11 -143.5t32 -89.5t52 -46.5t71 -13.5h253v-189h-253q-63 0 -124.5 21t-110.5 69.5t-79.5 127.5t-30.5 196zM1342 532q-2 -1 -38 -12.5t-113.5 -38t-201 -70t-300.5 -109.5q-111 -41 -188 -77.5t-126.5 -72t-75.5 -72t-36 -77t-7.5 -87.5t9.5 -104
q15 -117 53 -198.5t98 -131.5t141 -72.5t182 -22.5h502v-189h-502q-143 0 -256.5 33t-196.5 104t-135 182.5t-73 269.5q-21 160 5 269.5t96 187t182 132t263 102.5l462 150q-97 39 -194 74t-178.5 61.5t-139.5 43t-77 19.5q-17 0 -35.5 -3t-36.5 -18t-35 -46.5t-32 -88.5
l-183 48q77 296 324 296q7 0 16.5 -0.5t29 -5t50.5 -14t81 -26.5t121 -43.5t170 -65.5l368 -150z" />
    <glyph glyph-name="diagonal" horiz-adv-x="957" 
d="M99 1335l759 327l42 -90l-812 -352z" />
  </font>
</defs>
</svg>
